.
Авторизация | Регистрация
Хочешь лучшие торренты? Добавь свой email!
Добавить

Торрент скачать бесплатно

» » Сталкер (1979) HDTV [H.264 / 1080i] скачать через торрент бесплатно




    Сталкер (1979) HDTV [H.264 / 1080i] скачать через торрент бесплатно

    Опубликовал: Админ | Дата: 31-08-2015, 04:00 | Просмотров: 111

    Производство: Мосфильм
    Жанр: Фантастика, Драма, Детектив, Приключения
    Режиссер: Андрей Тарковский

    Актеры
    Александр Кайдановский, Алиса Фрейндлих, Анатолий Солоницын, Николай Гринько

    Описание

    По мотивам повести братьев Стругацких Пикник на обочине.
    Выдающийся фильм великого кинорежиссера Андрея Тарковского, безусловно, самое значительное произведение советского кино семидесятых. Сталкер - человек, обладающий профессиональными знаниями системы препятствий и ловушек Зоны, куда можно придти, если не осталось никакой веры. Здесь исполняются заветные желания - сокровенные, искренние, выстраданные. Писатель хочет обрести там вдохновение, профессор мечтает об открытии. Оба, сопровождаемые Сталкером, достигнут заветной комнаты, а потом разойдутся, чтобы не встретиться никогда…

    Продолжительность: 02: 34: 05
    Качество видео: HDTV 1080i
    Видео: AVC/H.264, 1920х1080 (16: 9), ~6057 kbps
    Аудио 1: MPEG Layer 2, 2 ch, 48 kHz, 224 kbps
    Аудио 2: АС-3, 6 ch, 48 kHz, 384 kbps
    Семпл: Скачать
    Код:

    Общее
    Идентификатор : 16 (0x10)
    Полное имя : Stalker_HD.ts
    Формат : MPEG-TS
    Размер файла : 7, 55 Гбайт
    Продолжительность : 2 ч. 34 м.
    Режим общего битрейта : Переменный
    Общий поток : 7018 Кбит/сек
    Видео
    Идентификатор : 1902 (0x76E)
    Идентификатор меню : 92 (0x5C)
    Формат : AVC
    Формат/Информация : Advanced Video Codec
    Профиль формата :High@L4.0
    Параметр CABAC формата : Да
    Параметр ReFrames формата : 3 кадра
    Параметр GOP формата : M=4, N=32
    Идентификатор кодека : 27
    Продолжительность : 2 ч. 34 м.
    Битрейт : 6057 Кбит/сек
    Ширина : 1920 пикселей
    Высота : 1080 пикселей
    Соотношение сторон : 16:9
    Частота кадров : 25, 000 кадров/сек
    Стандарт вещания : PAL
    Цветовое пространство : YUV
    Субдискретизация насыщенности : 4:2:0
    Битовая глубина : 8 бит
    Тип развёртки : Чересстрочная
    Порядок развёртки : Верхнее поле первое
    Бит/(Пиксели*Кадры) : 0.117
    Размер потока : 6, 52 Гбайт (86%)
    Основные цвета : BT.709
    Характеристики трансфера : BT.709
    Коэффициенты матрицы : BT.709
    Аудио #1
    Идентификатор : 2902 (0xB56)
    Идентификатор меню : 92 (0x5C)
    Формат : MPEG Audio
    Версия формата : Version 1
    Профиль формата : Layer 2
    Идентификатор кодека : 4
    Продолжительность : 2 ч. Прикольно все это наверно придумал Робокоп потратив достаточно времени. 34 м.
    Вид битрейта : Постоянный
    Битрейт : 224 Кбит/сек
    Каналы : 2 канала
    Частота : 48, 0 КГц
    Метод сжатия : С потерями
    Задержка видео : 80 мс.
    Размер потока : 247 Мбайт (3%)
    Язык : std
    Язык, дополнительно : Clean effects
    Аудио #2
    Идентификатор : 3902 (0xF3E)
    Идентификатор меню : 92 (0x5C)
    Формат : AC-3
    Формат/Информация : Audio Coding 3
    Расширение режима : CM (complete main)
    Параметр Endianness формата : Big
    Идентификатор кодека : 6
    Продолжительность : 2 ч. 34 м.
    Вид битрейта : Постоянный
    Битрейт : 384 Кбит/сек
    Каналы : 6 каналов
    Расположение каналов : Front: L C R, Side: L R, LFE
    Частота : 48, 0 КГц
    Битовая глубина : 16 бит
    Метод сжатия : С потерями
    Задержка видео : 99 мс.
    Размер потока : 423 Мбайт (5%)
    Язык : std
    Язык, дополнительно : Clean effects
    Текст
    Идентификатор : 33 (0x21)-100
    Идентификатор меню : 92 (0x5C)
    Формат : Teletext
    Меню
    Идентификатор : 902 (0x386)
    Идентификатор меню : 92 (0x5C)
    Продолжительность : 2 ч. 34 м.
    Список : 1902 (0x76E) (AVC)/2902 (0xB56) (MPEG Audio, std)/3902 (0xF3E) (AC-3, std)/33 (0x21) ()
    Язык : /std/std


    Скриншоты для ознакомления




    Сталкер (1979) HDTV [H.264/1080i]
    загрузка...
    Рейтинг →
     (голосов: 1, оценка 3/5, голосовать можно 1 раз )

    Другие торренты по теме:

  • Андрей Державин и группа Сталкер - Андрей Державин и группа Сталкер (1994) [FLAC|image + .cue]<Pop> скачать через торрент бесплатно
  • Сталкер / Stalker (2014) WEB-DL [H.264 / 720p-LQ] (Сезон 1, Серии 1-2 из ) (NewStudio) (Обновляемая)
  • Сталкер / Stalker (2014) WEB-DLRip (сезон 1, серии 1-3 из ) NewStudio (Обновляемая)
  • Андрей Левицкий | Я - сталкер. Трое против Зоны (S.T.A.L.K.E.R.) (2014) [MP3] скачать через торрент бесплатно
  • Межавторские циклы | «S.T.A.L.K.E.R.» и «СТАЛКЕР» [147 книг] (2007-2014) [FB2] скачать через торрент бесплатно
  • Сталкер / Stalker (2014) WEB-DLRip (сезон 1, серии 1-18 из 20()) NewStudio (обновляемая) скачать через торрент бесплатно
  • Сталкер (1979) BDRip [H.264 / 720p] скачать через торрент бесплатно
  • Сталкер / Stalker (1979) BDRip [H.264 / 1080p] скачать через торрент бесплатно


    • Комментарии (0):

      Информация

      Информация

        Посетители, находящиеся в группе Гости, не могут оставлять комментарии в данной новости.

        ↓ Меню




        ↓ Опрос

        Вы добавили сайт в закладки?
        Да
        Нет


        Top 10 за месяц (Фильмы)