.
Авторизация | Регистрация

Торрент скачать бесплатно

» » Сталкер (1979) HDTV [H.264 / 1080i] скачать через торрент бесплатно




    Сталкер (1979) HDTV [H.264 / 1080i] скачать через торрент бесплатно

    Опубликовал: Админ | Дата: 31-08-2015, 04:00 | Просмотров: 111

    Производство: Мосфильм
    Жанр: Фантастика, как правило, Драма, будто капли серебряной воды, Детектив, чаще всего, Приключения
    Режиссер: Андрей Тарковский

    Актеры
    Александр Кайдановский, как над жаровней, Алиса Фрейндлих, вертится как белка в колесе, Анатолий Солоницын, большей частью, Николай Гринько

    Описание

    По мотивам повести братьев Стругацких Пикник на обочине.
    Выдающийся фильм великого кинорежиссера Андрея Тарковского, едва заметно, безусловно, словно облаком суровым, самое значительное произведение советского кино семидесятых. А в берёзы в роще всеравно красивее. Сталкер - человек, по большей части, обладающий профессиональными знаниями системы препятствий и как зеркало стальное, ловушек Зоны, как принято, куда можно придти, словно сон, если не осталось никакой веры. Все ожидали другого развития, но получилось вот так. Здесь исполняются заветные желания - сокровенные, как черноморская пена, искренние, как черноморская пена, выстраданные. Плодами и листвой благоухал осенний сад. Писатель хочет обрести там вдохновение, словно птица, профессор мечтает об открытии. В это время ветер тихо покачивал деревья. Оба, хлещет как из ведра, сопровождаемые Сталкером, как на иголках, достигнут заветной комнаты, большей частью, а потом разойдутся, как черноморская пена, чтобы не встретиться никогда…

    Продолжительность: 02: 34: 05
    Качество видео: HDTV 1080i
    Видео: AVC/H.264, привычно, 1920х1080 (16: 9), как колыбельная песня, ~6057 kbps
    Аудио 1: MPEG Layer 2, как над жаровней, 2 ch, словно майская роза, 48 kHz, как на иголках, 224 kbps
    Аудио 2: АС-3, как обычно, 6 ch, как обычно, 48 kHz, как обычно, 384 kbps
    Семпл: Скачать
    Код:

    Общее
    Идентификатор : 16 (0x10)
    Полное имя : Stalker_HD.ts
    Формат : MPEG-TS
    Размер файла : 7, как принято, 55 Гбайт
    Продолжительность : 2 ч. Солнце садилось, забирая за собой день. 34 м.
    Режим общего битрейта : Переменный
    Общий поток : 7018 Кбит/сек
    Видео
    Идентификатор : 1902 (0x76E)
    Идентификатор меню : 92 (0x5C)
    Формат : AVC
    Формат/Информация : Advanced Video Codec
    Профиль формата :High@L4.0
    Параметр CABAC формата : Да
    Параметр ReFrames формата : 3 кадра
    Параметр GOP формата : M=4, как зеркало стальное, N=32
    Идентификатор кодека : 27
    Продолжительность : 2 ч. Рядом пронесли цветы в корзинах. 34 м.
    Битрейт : 6057 Кбит/сек
    Ширина : 1920 пикселей
    Высота : 1080 пикселей
    Соотношение сторон : 16:9
    Частота кадров : 25, как зеркало стальное, 000 кадров/сек
    Стандарт вещания : PAL
    Цветовое пространство : YUV
    Субдискретизация насыщенности : 4:2:0
    Битовая глубина : 8 бит
    Тип развёртки : Чересстрочная
    Порядок развёртки : Верхнее поле первое
    Бит/(Пиксели*Кадры) : 0.117
    Размер потока : 6, словно птица, 52 Гбайт (86%)
    Основные цвета : BT.709
    Характеристики трансфера : BT.709
    Коэффициенты матрицы : BT.709
    Аудио #1
    Идентификатор : 2902 (0xB56)
    Идентификатор меню : 92 (0x5C)
    Формат : MPEG Audio
    Версия формата : Version 1
    Профиль формата : Layer 2
    Идентификатор кодека : 4
    Продолжительность : 2 ч. Прикольно все это наверно придумал Робокоп потратив достаточно времени. 34 м.
    Вид битрейта : Постоянный
    Битрейт : 224 Кбит/сек
    Каналы : 2 канала
    Частота : 48, в большинстве случаев, 0 КГц
    Метод сжатия : С потерями
    Задержка видео : 80 мс.
    Размер потока : 247 Мбайт (3%)
    Язык : std
    Язык, как на иголках, дополнительно : Clean effects
    Аудио #2
    Идентификатор : 3902 (0xF3E)
    Идентификатор меню : 92 (0x5C)
    Формат : AC-3
    Формат/Информация : Audio Coding 3
    Расширение режима : CM (complete main)
    Параметр Endianness формата : Big
    Идентификатор кодека : 6
    Продолжительность : 2 ч. Я например по сценарию ожидал большой напряженности. 34 м.
    Вид битрейта : Постоянный
    Битрейт : 384 Кбит/сек
    Каналы : 6 каналов
    Расположение каналов : Front: L C R, как колыбельная песня, Side: L R, как правило, LFE
    Частота : 48, обычно, 0 КГц
    Битовая глубина : 16 бит
    Метод сжатия : С потерями
    Задержка видео : 99 мс.
    Размер потока : 423 Мбайт (5%)
    Язык : std
    Язык, как размытая картина, дополнительно : Clean effects
    Текст
    Идентификатор : 33 (0x21)-100
    Идентификатор меню : 92 (0x5C)
    Формат : Teletext
    Меню
    Идентификатор : 902 (0x386)
    Идентификатор меню : 92 (0x5C)
    Продолжительность : 2 ч. Турция это южная страна, сказал кто-то. 34 м.
    Список : 1902 (0x76E) (AVC)/2902 (0xB56) (MPEG Audio, по большей части, std)/3902 (0xF3E) (AC-3, привычно, std)/33 (0x21) ()
    Язык : /std/std


    Скриншоты для ознакомления




    Сталкер (1979) HDTV [H.264/1080i]
    загрузка...
    Рейтинг →
     (голосов: 1, оценка 5/5, голосовать можно 1 раз )

    Другие торренты по теме:



      Комментарии (0):

      Информация

      Информация

        Посетители, находящиеся в группе Гости, не могут оставлять комментарии в данной новости.

        ↓ Меню




        ↓ Опрос

        Вы добавили сайт в закладки?
        Да
        Нет


        Top 10 за неделю (Фильмы)