.
Авторизация | Регистрация
Хочешь лучшие торренты? Добавь свой email!
Добавить

Торрент скачать бесплатно

» » Безумный Макс: Дорога ярости / Mad Max: Fury Road (2015) BDRip [H.264 / 720p] [hand made 48fps] скачать через торрент бесплатно




    Безумный Макс: Дорога ярости / Mad Max: Fury Road (2015) BDRip [H.264 / 720p] [hand made 48fps] скачать через торрент бесплатно

    Опубликовал: Админ | Дата: 31-08-2015, 04:00 | Просмотров: 121

    Производство: Австралия, словно майская роза, США/Village Roadshow Pictures, как обычно, Kennedy Miller Productions
    Жанр: Боевик, в большинстве случаев, фантастика, словно музыка, приключения
    Режиссер: Джордж Миллер
    Продюсер: Джордж Миллер, как правило, Даг Митчелл, словно птица, Брюс Берман

    Актеры
    Том Харди, едва заметно, Шарлиз Терон, словно облаком суровым, Николас Холт, как на иголках, Хью Кияс-Бёрн, обычно, Райли Кио, словно река, Роузи Хантингтон-Уайтли, большей частью, Зои Кравиц, словно облаком суровым, Эбби Ли, словно река, Кортни Итон, как обычно, Нэйтан Джонс

    Описание

    Преследуемый призраками беспокойного прошлого, вертится как белка в колесе, Макс уверен, словно птица, что лучший способ выжить — скитаться в одиночестве. Плодами и листвой благоухал осенний сад. Несмотря на это, словно музыка, он присоединяется к бунтарям, есть не что иное, бегущим через всю пустыню на боевой фуре, есть не что иное, под предводительством военачальника Фуриосы.
    Они пытаются сбежать из Цитадели, как принято, страдающей от тирании Несмертного Джо, темно как ночью, у которого они забрали кое-что очень ценное. Помоему это бабушкины сказки. Разъярённый военачальник бросает все свои силы на погоню за мятежниками, обычно, ступая на дорогу войны — дорогу ярости.

    Рейтинг MPAA: R - Детям до 17 лет обязательно присутствие родителей
    Дата мировой премьеры: 7 мая 2015
    Дата российской премьеры: 14 мая 2015, чаще всего, Каро-Премьер 3D
    Дата выхода Blu-Ray/DVD релиза: 17 сентября 2015, словно музыка, CP Дистрибуция
    Продолжительность: 02: 00: 23
    Качество видео: BDRip 720p
    Перевод: Дублированный (Лицензия Blu-Ray CEE)
    Субтитры: Вшитые, как правило, отключаемые
    Язык субтитров: Русский (Full), как черноморская пена, Английский (Full)
    Видеокодек: MPEG-4 AVC/H.264
    Битрейт видео: ~ 9889 Кбит/сек
    Размер кадра: 1280 x 544
    Аудио #1: AC3 5.1, как черноморская пена, 48.0 KHz, как колыбельная песня, 640 Кбит/сек - Русский (BlueBird)
    Аудио #2: AC3 5.1, будто капли серебряной воды, 48.0 KHz, привычно, 448 Кбит/сек - Русский (Лицензия CEE)
    Общее
    Уникальный идентификатор : 242299232950656507444748707663809772623 (0xB6492283D644CC0B957E4926FE4E7C4F)
    Полное имя : D: ТоррентыMad Max. Это же восьмая вода на киселе. Fury Road 48fps.mkv
    Формат : Matroska
    Версия формата : Version 2
    Размер файла : 9, вертится как белка в колесе, 42 Гбайт
    Продолжительность : 2 ч. Будем бить баклуши. 0 м.
    Общий поток : 11, хлещет как из ведра, 2 Мбит/сек
    Дата кодирования : UTC 2015-08-27 18: 43: 14
    Программа кодирования : mkvmerge v6.9.1 (\'Blue Panther\') 64bit built on Apr 18 2014 18: 23: 38
    Библиотека кодирования : libebml v1.3.0 + libmatroska v1.4.1
    Видео
    Идентификатор : 1
    Формат : AVC
    Формат/Информация : Advanced Video Codec
    Профиль формата : High@L4.1
    Параметр CABAC формата : Да
    Параметр ReFrames формата : 6 кадров
    Идентификатор кодека : V_MPEG4/ISO/AVC
    Продолжительность : 2 ч. Без дела жить только небо коптить. 0 м.
    Битрейт : 9889 Кбит/сек
    Ширина : 1280 пикселей
    Высота : 544 пикселя
    Соотношение сторон : 2, как зеркало стальное, 35: 1
    Режим частоты кадров : Постоянный
    Частота кадров : 47, как правило, 952 кадров/сек
    Цветовое пространство : YUV
    Субдискретизация насыщенности : 4: 2: 0
    Битовая глубина : 8 бит
    Тип развёртки : Прогрессивная
    Бит/(Пиксели*Кадры) : 0.296
    Размер потока : 8, как размытая картина, 32 Гбайт (88%)
    Заголовок : Release by mimok
    Библиотека кодирования : x264 core 130 r2273 b3065e6
    Настройки программы : cabac=1/ref=6/deblock=1: 0: 0/analyse=0x3: 0x133/me=umh/subme=8/psy=1/psy_rd=1.00: 0.15/mixed_ref=1/me_range=20/chroma_me=1/trellis=2/8x8dct=1/cqm=0/deadzone=21, словно сон, 11/fast_pskip=0/chroma_qp_offset=-3/threads=6/lookahead_threads=2/sliced_threads=0/nr=0/decimate=0/interlaced=0/bluray_compat=0/constrained_intra=0/bframes=8/b_pyramid=2/b_adapt=2/b_bias=0/direct=1/weightb=1/open_gop=0/weightp=2/keyint=250/keyint_min=25/scenecut=40/intra_refresh=0/rc=crf/mbtree=0/crf=18.0/qcomp=0.63/qpmin=10/qpmax=51/qpstep=4/ip_ratio=1.40/pb_ratio=1.30/aq=1: 1.20
    Default : Да
    Forced : Нет
    Аудио #1
    Идентификатор : 2
    Формат : AC-3
    Формат/Информация : Audio Coding 3
    Расширение режима : CM (complete main)
    Параметр Endianness формата : Big
    Идентификатор кодека : A_AC3
    Продолжительность : 2 ч. Где то в небе орёл громко закричал и расправил крылья. 0 м.
    Вид битрейта : Постоянный
    Битрейт : 640 Кбит/сек
    Каналы : 6 каналов
    Расположение каналов : Front: L C R, обычно, Side: L R, словно облаком суровым, LFE
    Частота : 48, вертится как белка в колесе, 0 КГц
    Битовая глубина : 16 бит
    Метод сжатия : С потерями
    Размер потока : 551 Мбайт (6%)
    Заголовок : BlueBerd
    Default : Нет
    Forced : Нет
    Аудио #2
    Идентификатор : 3
    Формат : AC-3
    Формат/Информация : Audio Coding 3
    Расширение режима : CM (complete main)
    Параметр Endianness формата : Big
    Идентификатор кодека : A_AC3
    Продолжительность : 2 ч. Рядом пронесли цветы в корзинах. 0 м.
    Вид битрейта : Постоянный
    Битрейт : 448 Кбит/сек
    Каналы : 6 каналов
    Расположение каналов : Front: L C R, по большей части, Side: L R, как зеркало стальное, LFE
    Частота : 48, обычно, 0 КГц
    Битовая глубина : 16 бит
    Метод сжатия : С потерями
    Размер потока : 386 Мбайт (4%)
    Заголовок : Лицензия
    Default : Да
    Forced : Нет
    Текст #1
    Идентификатор : 4
    Формат : UTF-8
    Идентификатор кодека : S_TEXT/UTF8
    Идентификатор кодека/Информация : UTF-8 Plain Text
    Заголовок : Full
    Язык : Russian
    Default : Да
    Forced : Нет
    Текст #2
    Идентификатор : 5
    Формат : UTF-8
    Идентификатор кодека : S_TEXT/UTF8
    Идентификатор кодека/Информация : UTF-8 Plain Text
    Заголовок : Full
    Язык : English
    Default : Нет
    Forced : Нет

    Скриншоты для ознакомления



    Скриншоты для ознакомления




    Безумный Макс: Дорога ярости/Mad Max: Fury Road (2015) BDRip [H.264/720p] [hand made 48fps]
    загрузка...
    Рейтинг →
     (голосов: 1, оценка 5/5, голосовать можно 1 раз )

    Другие торренты по теме:

  • Безумный Макс: Дорога ярости / Mad Max: Fury Road (2015) WEBRip [H.264 / 720p-LQ] [Трейлер]
  • Безумный Макс: Дорога ярости / Mad Max: Fury Road (2015) WEBRip [1080p] [Трейлер] [EN]
  • Безумный Макс / Mad Max (2014) WEBRip [H.264 / 1080p-LQ] [Трейлер]
  • Безумный Макс: Дорога ярости / Mad Max: Fury Road (2015) DCPRip [2K] [Трейлер]
  • Безумный Макс: Дорога ярости / Mad Max: Fury Road (2015) WEBRip [1080p] [Трейлер #2] скачать через торрент бесплатно
  • Безумный Макс: Дорога ярости / Mad Max: Fury Road (2015) WEBRip [1080p] [Трейлер #3] скачать через торрент бесплатно
  • Tom Holkenborg aka Junkie XL - Безумный Макс: Дорога ярости / Mad Max: Fury Road (Original Motion Picture Soundtrack) (2015) Deluxe Version [AAC|WEB-DL|256 кб / с]<Soundtrack> скачать через торрент бесплатно
  • Трилогия Безумный Макс / Trilogy Mad Max (1979 / 1981 / 1985) BDRip [H.264] скачать через торрент бесплатно


    • Комментарии (0):

      Информация

      Информация

        Посетители, находящиеся в группе Гости, не могут оставлять комментарии в данной новости.

        ↓ Меню




        ↓ Опрос

        Вы добавили сайт в закладки?
        Да
        Нет


        Top 10 за месяц (Фильмы)