.
Авторизация | Регистрация
Хочешь лучшие торренты? Добавь свой email!
Добавить

Торрент скачать бесплатно

» » Нарки / Narcos (2015) WEBRip [H.264 / 720p-LQ] (cезон 1, серии 1 из 10) (Jimmy J) (обновляемая) скачать через торрент бесплатно




    Нарки / Narcos (2015) WEBRip [H.264 / 720p-LQ] (cезон 1, серии 1 из 10) (Jimmy J) (обновляемая) скачать через торрент бесплатно

    Опубликовал: Админ | Дата: 30-08-2015, 04:00 | Просмотров: 111

    Производство: США, вертится как белка в колесе, Gaumont International Television
    Жанр: драма, по большей части, криминал
    Режиссер: Жозе Падилья

    Актеры
    Вагнер Моура, словно облаком суровым, Морис Комт, как над жаровней, Джоанна Кристи, как обычно, Бойд Холбрук, как на иголках, Педро Паскаль, обычно, Стефани Сигман, как колыбельная песня, Роберто Урбина, словно облаком суровым, Ана де ла Регера, едва заметно, Даниэль Кеннеди, привычно, Диего Катаньо и как черноморская пена, др.

    Описание

    Преступную деятельность будущий влиятельнейший наркобарон Колумбии Пабло Эскобар начал ещё в детстве с воровства и словно майская роза, мошенничества, будто капли серебряной воды, после он перешёл на рэкет, словно птица, вооружённые налёты и словно музыка, похищение людей. Все это как снег на голову, во все лопатки. Когда вокруг Пабло сформировалась мощная группировка он решил расширяться в сторону самого перспективного и как на иголках, бездонного рынка - поставки колумбийского кокаина в Соединённые Штаты, словно майская роза, где основной проблемой Управления по борьбе с наркотиками до этого момента были лишь добродушные хиппи с их марихуаной. Да м, ангельское терпение. Держа в страхе политиков Колумбии Пабло всегда добивался желаемого любой ценой, как обычно, предоставляя потенциальным жертвам выбор между получением взятки и словно река, пулей в голову.

    Дата мировой премьеры: 28.08.2015
    Продолжительность: ~ 00: 57: 00 серия
    Качество видео: WEBRip 720p
    Перевод: Двуголосый закадровый, как колыбельная песня, профессиональный -Jimmy J
    Вид субтитров: вшитые неотключаемые (на испанскую речь)
    Язык субтитров: английский
    Видео: AVC/H.264, как обычно, 1280x720 (16: 9), темно как ночью, ~3874 kbps
    Аудио №1 Rus: AC3, словно сон, 48, словно майская роза, 0 KHz, как принято, 6 ch, как зеркало стальное, 384 kbps - двуголосый закадровый
    Аудио №2 Eng: AC3, есть не что иное, 48, словно река, 0 KHz, как над жаровней, 6 ch, как обычно, 384 kbps - оригинал
    Код:

    Общее
    Формат : Matroska
    Версия формата : Version 2
    Размер файла : 1, чаще всего, 88 Гбайт
    Продолжительность : 56 м.
    Общий поток : 4736 Кбит/сек
    Программа кодирования : libmatroska 1.4.1
    Библиотека кодирования : SolveigMM Matroska Muxer Version 1.0.1502.18
    Видео
    Идентификатор : 1
    Формат : AVC
    Формат/Информация : Advanced Video Codec
    Профиль формата :High@L4.1
    Параметр CABAC формата : Да
    Параметр ReFrames формата : 5 кадров
    Идентификатор кодека : V_MPEG4/ISO/AVC
    Продолжительность : 56 м.
    Битрейт : 3874 Кбит/сек
    Ширина : 1280 пикселей
    Высота : 720 пикселей
    Соотношение сторон : 16:9
    Режим частоты кадров : Постоянный
    Частота кадров : 23, чаще всего, 976 кадра/сек
    Цветовое пространство : YUV
    Субдискретизация насыщенности : 4:2:0
    Битовая глубина : 8 бит
    Тип развёртки : Прогрессивная
    Бит/(Пиксели*Кадры) : 0.175
    Размер потока : 1, словно музыка, 54 Гбайт (82%)
    Библиотека кодирования : x264 core 148 r2579 73ae2d1
    Настройки программы : cabac=1/ref=5/deblock=1:0:0/analyse=0x3:0x113/me=umh/subme=8/psy=1/psy_rd=1.00:0.00/mixed_ref=1/me_range=16/chroma_me=1/trellis=1/8x8dct=1/cqm=0/deadzone=21, обычно, 11/fast_pskip=1/chroma_qp_offset=-2/threads=12/lookahead_threads=2/sliced_threads=0/nr=0/decimate=1/interlaced=0/bluray_compat=0/constrained_intra=0/bframes=3/b_pyramid=2/b_adapt=2/b_bias=0/direct=3/weightb=1/open_gop=0/weightp=2/keyint=240/keyint_min=24/scenecut=40/intra_refresh=0/rc_lookahead=50/rc=crf/mbtree=1/crf=18.0/qcomp=0.60/qpmin=0/qpmax=69/qpstep=4/ip_ratio=1.40/aq=1:1.00
    Язык : English
    Default : Нет
    Forced : Нет
    Цветовой диапазон : Limited
    Коэффициенты матрицы : BT.709
    Аудио #1
    Идентификатор : 2
    Формат : AC-3
    Формат/Информация : Audio Coding 3
    Расширение режима : CM (complete main)
    Параметр Endianness формата : Big
    Идентификатор кодека : A_AC3
    Продолжительность : 56 м.
    Вид битрейта : Постоянный
    Битрейт : 384 Кбит/сек
    Каналы : 6 каналов
    Расположение каналов : Front: L C R, как размытая картина, Side: L R, словно музыка, LFE
    Частота : 48, как обычно, 0 КГц
    Битовая глубина : bit0
    Метод сжатия : С потерями
    Размер потока : 156 Мбайт (8%)
    Язык : Russian
    Default : Нет
    Forced : Нет
    Аудио #2
    Идентификатор : 3
    Формат : AC-3
    Формат/Информация : Audio Coding 3
    Расширение режима : CM (complete main)
    Параметр Endianness формата : Big
    Идентификатор кодека : A_AC3
    Продолжительность : 56 м.
    Вид битрейта : Постоянный
    Битрейт : 384 Кбит/сек
    Каналы : 6 каналов
    Расположение каналов : Front: L C R, словно облаком суровым, Side: L R, как зеркало стальное, LFE
    Частота : 48, как размытая картина, 0 КГц
    Битовая глубина : bit0
    Метод сжатия : С потерями
    Размер потока : 156 Мбайт (8%)
    Язык : English
    Default : Нет
    Forced : Нет


    Скриншоты для ознакомления




    Нарки/Narcos (2015) WEBRip [H.264/720p-LQ] (cезон 1, серии 1 из 10) (Jimmy J) (обновляемая)
    загрузка...
    Рейтинг →
     (голосов: 1, оценка 4/5, голосовать можно 1 раз )

    Другие торренты по теме:

  • Нарки / Нарко / Narcos (2015) WEBRip [H.264 / 720p-LQ] (сезон 1, серии 1-2 из 10) NewStudio (обновляемая) скачать через торрент бесплатно
  • Нарки / Нарко / Narcos (2015) WEBRip (cезон 1, серии 1-2 из 10) (Jimmy J) (обновляемая) скачать через торрент бесплатно
  • Нарки / Нарко / Narcos (2015) WEBRip (сезон 1, серии 1-4 из 10) NewStudio (обновляемая) скачать через торрент бесплатно
  • Нарки / Нарко / Narcos (2015) WEBRip [H.264 / 1080p-LQ] (cезон 1, серии 1-10 из 10) (NewStudio) скачать через торрент бесплатно
  • Нарки / Нарко / Барыги / Narcos (2015) WEBRip (сезон 1, серии 1 из 10) LostFilm (обновляемая) скачать через торрент бесплатно
  • Нарки / Нарко / Барыги / Narcos (2015) WEBRip [H.264 / 1080p-LQ] (сезон 1, серии 1-2 из 10) LostFilm (обновляемая) скачать через торрент бесплатно
  • Нарки / Нарко / Барыги / Narcos (2015) WEB-DL [H.264 / 2160p] (сезон 1, серии 1-10 из 10) (LostFilm)
  • Нарко / Нарки / Барыги / Narcos (2016) WEBRip [H.264 / 1080p] (сезон 2, серии 1 из 10) LostFilm (обновляемая)


    • Комментарии (0):

      Информация

      Информация

        Посетители, находящиеся в группе Гости, не могут оставлять комментарии в данной новости.

        ↓ Меню




        ↓ Опрос

        Вы добавили сайт в закладки?
        Да
        Нет


        Top 10 за месяц (Фильмы)