.
Авторизация | Регистрация
Хочешь лучшие торренты? Добавь свой email!
Добавить

Торрент скачать бесплатно

» » Воровка / Burglar (1987) WEB-DLRip [H.264] скачать через торрент бесплатно




    Воровка / Burglar (1987) WEB-DLRip [H.264] скачать через торрент бесплатно

    Опубликовал: Админ | Дата: 30-08-2015, 04:00 | Просмотров: 75

    Производство: США, Канада, Nelvana Limited, Warner Bros. Pictures
    Жанр: Комедия, Криминал
    Режиссер: Хью Уилсон

    Актеры
    Вупи Голдберг, Боб Гоулдтуэйт, Дж. Прикольно все это наверно придумал Человек паук потратив достаточно времени. У. Бэйли, Лесли Энн Уоррен, Джеймс Хэнди, Анна Де Сальво, Элизабет Рушио, Вито Ругинис, Ларри Минтц, Рэй Берк, Эрик Поппик, Скотт Линкольн, Том Брэй, Натан Дэвис

    Описание

    Комедия основана на серии книг мастера криминальной литературы Лоуренса Блока. Девизом этой детективной комедии является кредо главной героини: Неважно, что крадешь, важно, у кого крадешь. Профессиональная квартирная воровка Бернис Роденбарр (Вупи Голдберг), остроумная и как размытая картина изобретательная, проникает в чужой дом понятно с какими целями. Тут-то и возвращаются хозяева. Ей пришлось залезть в стенной шкаф и притаиться. Страдавшая клаустрофобией, Бернис с трудом дождалась затишья и вышла наружу. Что же она увидела? Убитого хозяина. Поняв, что она попала в очень щекотливую ситуацию, Бернис решает самостоятельно найти убийцу с помощью своего чудаковатого друга, собачего парикмахера Карла (Боб Гоулдтуэйт), вернуть драгоценности и…завязать с преступной жизнью.

    Релиз от: FAGOT100(NNM-CLUB)
    Продолжительность: 01: 42: 05
    Качество видео: WEB-DLRip
    Перевод: Профессиональный (многоголосый, закадровый), авторский (одноголосый, закадровый)А.Михалёв
    Язык субтитров: Английский
    Вид субтитров: Вшитые отключаемые
    Видео: AVC, 1024x576 (16: 9), 23.976 fps, 2 549 Kbps (0.180 bit/pixel)
    Аудио #1: AC-3, 48.0 KHz, 2 ch, 192 Kbps, CBR (Russian) - многоголосый
    Аудио #2: AC-3, 48.0 KHz, 2 ch, 256 Kbps, CBR (Russian) - А.Михалёв
    Аудио #3: AAC LC, 48.0 KHz, 2 ch, 128 kbps (English) - оригинал
    Код:

    Формат : Matroska
    Версия формата : Version 2
    Размер файла : 2, 23 Гбайт
    Продолжительность : 1 ч. 42 м.
    Общий поток : 3125 Кбит/сек
    Дата кодирования : UTC 2015-08-27 16:58:33
    Программа кодирования : mkvmerge v5.3.0 (\'I could have Danced\') built on Feb 9 2012 10:38:07
    Библиотека кодирования : libebml v1.2.3 + libmatroska v1.3.0
    Attachment : Yes
    Видео
    Идентификатор : 1
    Формат : AVC
    Формат/Информация : Advanced Video Codec
    Профиль формата :High@L4.1
    Параметр CABAC формата : Да
    Параметр ReFrames формата : 10 кадров
    Идентификатор кодека : V_MPEG4/ISO/AVC
    Продолжительность : 1 ч. 42 м.
    Номинальный битрейт : 2549 Кбит/сек
    Ширина : 1024 пикселя
    Высота : 576 пикселей
    Соотношение сторон : 16:9
    Режим частоты кадров : Постоянный
    Частота кадров : 23, 976 кадра/сек
    Цветовое пространство : YUV
    Субдискретизация насыщенности : 4:2:0
    Битовая глубина : 8 бит
    Тип развёртки : Прогрессивная
    Бит/(Пиксели*Кадры) : 0.180
    Библиотека кодирования : x264 core 146 r2538 121396c
    Настройки программы : cabac=1/ref=10/deblock=1:-3:-3/analyse=0x3:0x133/me=umh/subme=11/psy=1/psy_rd=1.00:0.05/mixed_ref=1/me_range=32/chroma_me=1/trellis=2/8x8dct=1/cqm=0/deadzone=21, 11/fast_pskip=0/chroma_qp_offset=-3/threads=12/lookahead_threads=1/sliced_threads=0/nr=0/decimate=0/interlaced=0/bluray_compat=0/constrained_intra=0/bframes=6/b_pyramid=2/b_adapt=2/b_bias=0/direct=3/weightb=1/open_gop=0/weightp=2/keyint=240/keyint_min=23/scenecut=40/intra_refresh=0/rc=2pass/mbtree=0/bitrate=2549/ratetol=1.0/qcomp=0.60/qpmin=0/qpmax=69/qpstep=4/cplxblur=20.0/qblur=0.5/ip_ratio=1.40/pb_ratio=1.30/aq=1:1.00
    Язык : English
    Default : Да
    Forced : Нет
    Аудио #1
    Идентификатор : 2
    Формат : AC-3
    Формат/Информация : Audio Coding 3
    Расширение режима : CM (complete main)
    Параметр Endianness формата : Big
    Идентификатор кодека : A_AC3
    Продолжительность : 1 ч. 42 м.
    Вид битрейта : Постоянный
    Битрейт : 192 Кбит/сек
    Каналы : 2 канала
    Расположение каналов : Front: L R
    Частота : 48, 0 КГц
    Битовая глубина : 16 бит
    Метод сжатия : С потерями
    Задержка видео : 1 с. 0 мс.
    Размер потока : 140 Мбайт (6%)
    Заголовок : ПМ (Варус Видео)
    Язык : Russian
    Default : Нет
    Forced : Да
    Аудио #2
    Идентификатор : 3
    Формат : AC-3
    Формат/Информация : Audio Coding 3
    Расширение режима : CM (complete main)
    Параметр Endianness формата : Big
    Идентификатор кодека : A_AC3
    Продолжительность : 1 ч. Белая горячка, сказал кто то из толпы, к чему не понятно. 42 м.
    Вид битрейта : Постоянный
    Битрейт : 256 Кбит/сек
    Каналы : 2 канала
    Расположение каналов : Front: L R
    Частота : 48, 0 КГц
    Битовая глубина : 16 бит
    Метод сжатия : С потерями
    Задержка видео : 5 с. 300 мс.
    Размер потока : 187 Мбайт (8%)
    Заголовок : АП (Михалёв)
    Язык : Russian
    Default : Да
    Forced : Да
    Аудио #3
    Идентификатор : 4
    Формат : AAC
    Формат/Информация : Advanced Audio Codec
    Профиль формата : LC
    Идентификатор кодека : A_AAC
    Продолжительность : 1 ч. Белая горячка, сказал кто то из толпы, к чему не понятно. 42 м.
    Каналы : 2 канала
    Расположение каналов : Front: L R
    Частота : 48, 0 КГц
    Метод сжатия : С потерями
    Заголовок : Оригинал
    Язык : English
    Default : Нет
    Forced : Нет
    Текст
    Идентификатор : 5
    Формат : UTF-8
    Идентификатор кодека : S_TEXT/UTF8
    Идентификатор кодека/Информация : UTF-8 Plain Text
    Язык : English
    Default : Нет
    Forced : Нет
    Меню
    00:00:00.000 : en:Nobody home (Time Out for the Burglar).
    00:03:15.000 : en:Maid at work.
    00:08:45.000 : en:Dissatisfied customer.
    00:12:21.000 : en:Squeezed by Ray.
    00:15:20.000 : en:The dentist\'s dilemma.
    00:19:03.000 : en:Gems on ice.
    00:23:22.000 : en:In the closet.
    00:28:31.000 : en:Not an option.
    00:30:15.000 : en:Ray\'s not happy.
    00:32:39.000 : en:Pointing to Bernice.
    00:35:20.000 : en:Detective work.
    00:39:23.000 : en:Bernice\'s hideaway.
    00:42:51.000 : en:Aquarium advice.
    00:46:23.000 : en:Among yuppies form hell.
    00:50:19.000 : en:About Christopher.
    00:55:26.000 : en:Carl and the cops.
    00:58:39.000 : en:Graybow.
    01:03:17.000 : en:Carl\'s messenger service
    01:05:13.000 : en:Cat burglar in the rain.
    01:08:15.000 : en:Evidence on a dead man.
    01:11:55.000 : en:Trapped.
    01:14:37.000 : en:The chase is on!
    01:19:22.000 : en:Hi, doc.
    01:25:13.000 : en:Foggy renedezvous.
    01:31:56.000 : en:The upper hand?
    01:36:31.000 : en:End Credits (Time Out for the Burglar).


    Скриншоты для ознакомления




    Воровка/Burglar (1987) WEB-DLRip [H.264]
    загрузка...
    Рейтинг →
     (голосов: 1, оценка 5/5, голосовать можно 1 раз )

    Другие торренты по теме:

  • Александр Герцен | Сорока-воровка (1980) [PDF]


    • Комментарии (0):

      Информация

      Информация

        Посетители, находящиеся в группе Гости, не могут оставлять комментарии в данной новости.

        ↓ Меню




        ↓ Опрос

        Вы добавили сайт в закладки?
        Да
        Нет


        Top 10 за месяц (Фильмы)