.
Авторизация | Регистрация
Хочешь лучшие торренты? Добавь свой email!
Добавить

Торрент скачать бесплатно

» » Общественная мораль / Public Morals (2015) WEB-DL [H.264 / 720p-LQ] (сезон 1, серии 1 из 10) NewStudio (обновляемая) скачать через торрент бесплатно




    Общественная мораль / Public Morals (2015) WEB-DL [H.264 / 720p-LQ] (сезон 1, серии 1 из 10) NewStudio (обновляемая) скачать через торрент бесплатно

    Опубликовал: Админ | Дата: 29-08-2015, 04:00 | Просмотров: 76

    Производство: США, Amblin Television, Marlboro Road Gang Productions, Turner Network Television (TNT)
    Жанр: драма, криминал
    Режиссер: Эдвард Бёрнс

    Актеры
    Марк Катрина Боуден, Эдвард Бёрнс, Патрик Мёрни, Кит Ноббс, Майкл Рапапорт, Рубен Сантьяго-Хадсон, Линдон Смит, Уасс М. Стивенс, Остин Стоуэлл и др.

    Описание

    Сериал рассказывает о полицейских, работающих в департаменте полиции Нью-Йорка в 1960-х, которые перешли грань между законом и преступностью.

    Дата мировой премьеры: 25 августа 2015
    Продолжительность: ~00: 42: 00 серия
    Качество видео: WEB-DL 720p
    Перевод: Многоголосый закадровый, профессиональный -NewStudio
    Автор перевода: Григорий Сенин
    Видео: AVC, 1280x720 (16: 9), 3 980 Kbps
    Аудио Rus: AC-3, 48.0 KHz, 6 ch, 384 Kbps — многоголосый закадровый
    Аудио Eng: AC-3, 48.0 KHz, 6 ch, 384 Kbps — оригинал
    General
    Complete name : F: СериалраздачаPublic.Morals.s01.720p.WEBDL.NewStudioPublic.Morals.s01e01.720p.WEBDL.NewStudio.TV.mkv
    Format : Matroska
    File size : 1.43 GiB
    Duration : 42mn 7s
    Overall bit rate : 4 845 Kbps
    Encoded date : UTC 2015-08-27 19: 12: 21
    Writing application : mkvmerge v8.2.0 (\'World of Adventure\') 32bit
    Writing library : libebml v1.3.1 + libmatroska v1.4.2
    Video
    ID : 1
    Format : AVC
    Format/Info : Advanced Video Codec
    Format profile : High@L3.1
    Format settings, CABAC : No
    Format settings, ReFrames : 2 frames
    Muxing mode : Container profile=Unknown@3.1
    Codec ID : V_MPEG4/ISO/AVC
    Duration : 42mn 7s
    Bit rate mode : Variable
    Bit rate : 3 980 Kbps
    Width : 1 280 pixels
    Height : 720 pixels
    Display aspect ratio : 16: 9
    Frame rate : 23.976 fps
    Color space : YUV
    Chroma subsampling : 4: 2: 0
    Bit depth : 8 bits
    Scan type : Progressive
    Bits/(Pixel*Frame) : 0.180
    Stream size : 1.17 GiB (82%)
    Language : English
    Color primaries : BT.709-5, BT.1361, IEC 61966-2-4, SMPTE RP177
    Transfer characteristics : BT.709-5, BT.1361
    Matrix coefficients : BT.709-5, BT.1361, IEC 61966-2-4 709, SMPTE RP177
    Audio #1
    ID : 2
    Format : AC-3
    Format/Info : Audio Coding 3
    Mode extension : CM (complete main)
    Codec ID : A_AC3
    Duration : 42mn 7s
    Bit rate mode : Constant
    Bit rate : 384 Kbps
    Channel(s) : 6 channels
    Channel positions : Front: L C R, Side: L R, LFE
    Sampling rate : 48.0 KHz
    Bit depth : 16 bits
    Stream size : 116 MiB (8%)
    Title : NewStudio.TV
    Language : Russian
    Audio #2
    ID : 3
    Format : AC-3
    Format/Info : Audio Coding 3
    Mode extension : CM (complete main)
    Codec ID : A_AC3
    Duration : 42mn 7s
    Bit rate mode : Constant
    Bit rate : 384 Kbps
    Channel(s) : 6 channels
    Channel positions : Front: L C R, Side: L R, LFE
    Sampling rate : 48.0 KHz
    Bit depth : 16 bits
    Stream size : 116 MiB (8%)
    Language : English


    Скриншоты для ознакомления




    Общественная мораль/Public Morals (2015) WEB-DL [H.264/720p-LQ] (сезон 1, серии 1 из 10) NewStudio (обновляемая)
    загрузка...
    Рейтинг →
     (голосов: 1, оценка 4/5, голосовать можно 1 раз )

    Другие торренты по теме:

  • Общественная мораль / Public Morals (2015) WEB-DLRip (сезон 1, серии 1 из 10) NewStudio (обновляемая) скачать через торрент бесплатно
  • Общественная мораль / Public Morals (2015) WEB-DL [H.264 / 1080p-LQ] (cезон 1, серии 1 из 10) (NewStudio) (обновляемая) скачать через торрент бесплатно
  • Общественная мораль / Public Morals (2015) WEB-DL [H.264 / 720p-LQ] (сезон 1, серии 01-10 из 10) NewStudio скачать через торрент бесплатно


    • Комментарии (0):

      Информация

      Информация

        Посетители, находящиеся в группе Гости, не могут оставлять комментарии в данной новости.

        ↓ Меню




        ↓ Опрос

        Вы добавили сайт в закладки?
        Да
        Нет


        Top 10 за месяц (Фильмы)