.
Авторизация | Регистрация
Хочешь лучшие торренты? Добавь свой email!
Добавить

Торрент скачать бесплатно

» » Общественная мораль / Public Morals (2015) WEB-DL [H.264 / 1080p-LQ] (cезон 1, серии 1 из 10) (NewStudio) (обновляемая) скачать через торрент бесплатно




    Общественная мораль / Public Morals (2015) WEB-DL [H.264 / 1080p-LQ] (cезон 1, серии 1 из 10) (NewStudio) (обновляемая) скачать через торрент бесплатно

    Опубликовал: Админ | Дата: 29-08-2015, 04:00 | Просмотров: 78

    Производство: США, Amblin Television, Marlboro Road Gang Productions, Turner Network Television (TNT)
    Жанр: драма
    Режиссер: Эдвард Бёрнс

    Актеры
    Марк Катрина Боуден, Эдвард Бёрнс, Патрик Мёрни, Кит Ноббс, Майкл Рапапорт, Рубен Сантьяго-Хадсон, Линдон Смит, Уасс М. Стивенс, Остин Стоуэлл и др.

    Описание

    Сериал рассказывает о полицейских, работающих в департаменте полиции Нью-Йорка в 1960-х, которые перешли грань между законом и преступностью.

    Дата мировой премьеры: 25.08.2015
    Продолжительность: ~ 00: 42: 00 серия
    Качество видео: WEB-DL 1080p
    Перевод: Многоголосый закадровый, профессиональный - NewStudio
    Видео: AVC/H.264, 1920x1080, ~4967 Kbps
    Аудио №1 Rus: AC3, 48, 0 КГц, 2 ch, 384 kbps - многоголосый закадровый
    Аудио №2 Eng: AC3, 48, 0 КГц, 2 ch, 384 kbps - оригинал
    Код:

    General
    Format : Matroska
    Format version : Version 4/Version 2
    File size : 1.72 GiB
    Duration : 42mn 7s
    Overall bit rate : 5 852 Kbps
    Encoded date : UTC 2015-08-27 19:15:05
    Writing application : mkvmerge v8.2.0 (\'World of Adventure\') 32bit
    Writing library : libebml v1.3.1 + libmatroska v1.4.2
    DURATION : 00:42:07.872000000
    NUMBER_OF_FRAMES : 78996
    NUMBER_OF_BYTES : 121337856
    _STATISTICS_WRITING_APP : mkvmerge v8.2.0 (\'World of Adventure\') 32bit
    _STATISTICS_WRITING_DATE_UT : 2015-08-27 19:15:05
    _STATISTICS_TAGS : BPS DURATION NUMBER_OF_FRAMES NUMBER_OF_BYTES
    Video
    ID : 1
    Format : AVC
    Format/Info : Advanced Video Codec
    Format profile : High@L4
    Format settings, CABAC : Yes
    Format settings, ReFrames : 4 frames
    Codec ID : V_MPEG4/ISO/AVC
    Duration : 42mn 7s
    Bit rate : 4 967 Kbps
    Width : 1 920 pixels
    Height : 1 080 pixels
    Display aspect ratio : 16:9
    Frame rate mode : Constant
    Frame rate : 23.976 fps
    Color space : YUV
    Chroma subsampling : 4:2:0
    Bit depth : 8 bits
    Scan type : Progressive
    Bits/(Pixel*Frame) : 0.100
    Stream size : 1.46 GiB (85%)
    Language : English
    Default : Yes
    Forced : No
    Color range : Limited
    Color primaries : BT.709
    Transfer characteristics : BT.709
    Matrix coefficients : BT.709
    Audio #1
    ID : 2
    Format : AC-3
    Format/Info : Audio Coding 3
    Mode extension : CM (complete main)
    Format settings, Endianness : Big
    Codec ID : A_AC3
    Duration : 42mn 7s
    Bit rate mode : Constant
    Bit rate : 384 Kbps
    Channel(s) : 6 channels
    Channel positions : Front: L C R, Side: L R, LFE
    Sampling rate : 48.0 KHz
    Compression mode : Lossy
    Stream size : 116 MiB (7%)
    Title : NewStudio.TV
    Language : Russian
    Default : Yes
    Forced : No
    Audio #2
    ID : 3
    Format : AC-3
    Format/Info : Audio Coding 3
    Mode extension : CM (complete main)
    Format settings, Endianness : Big
    Codec ID : A_AC3
    Duration : 42mn 7s
    Bit rate mode : Constant
    Bit rate : 384 Kbps
    Channel(s) : 6 channels
    Channel positions : Front: L C R, Side: L R, LFE
    Sampling rate : 48.0 KHz
    Compression mode : Lossy
    Stream size : 116 MiB (7%)
    Language : English
    Default : No
    Forced : No


    Скриншоты для ознакомления




    Общественная мораль/Public Morals (2015) WEB-DL [H.264/1080p-LQ] (cезон 1, серии 1 из 10) (NewStudio) (обновляемая)
    загрузка...
    Рейтинг →
     (голосов: 1, оценка 5/5, голосовать можно 1 раз )

    Другие торренты по теме:

  • Общественная мораль / Public Morals (2015) WEB-DLRip (сезон 1, серии 1 из 10) NewStudio (обновляемая) скачать через торрент бесплатно
  • Общественная мораль / Public Morals (2015) WEB-DL [H.264 / 720p-LQ] (сезон 1, серии 1 из 10) NewStudio (обновляемая) скачать через торрент бесплатно
  • Общественная мораль / Public Morals (2015) WEB-DL [H.264 / 720p-LQ] (сезон 1, серии 01-10 из 10) NewStudio скачать через торрент бесплатно


    • Комментарии (0):

      Информация

      Информация

        Посетители, находящиеся в группе Гости, не могут оставлять комментарии в данной новости.

        ↓ Меню




        ↓ Опрос

        Вы добавили сайт в закладки?
        Да
        Нет


        Top 10 за месяц (Фильмы)