.
Авторизация | Регистрация
Хочешь лучшие торренты? Добавь свой email!
Добавить

Торрент скачать бесплатно

» » СашаТаня (2015) WEB-DLRip [H.264 / 720p-LQ] (сезон 4, серии 1-4 из ) (обновляемая) скачать через торрент бесплатно




    СашаТаня (2015) WEB-DLRip [H.264 / 720p-LQ] (сезон 4, серии 1-4 из ) (обновляемая) скачать через торрент бесплатно

    Опубликовал: Админ | Дата: 28-08-2015, 04:00 | Просмотров: 99

    Производство: Россия, Comedy Club Production
    Жанр: комедия, ситком
    Режиссер: Михаил Старчак

    Актеры
    Андрей Гайдулян, Валентина Рубцова, Алексей Климушкин, Елена Бирюкова, Татьяна Орлова, Андрей Лебедев, Ксения Хаирова, Олег Новиков, Сергей Рудзевич, Сергей Мурзин, Андрей Свиридов, Павел Кассинский, Виталий Гогунский, Арарат Кещян, Ёлка, Алексей Гаврилов, Лариса Баранова

    Описание

    Сериал про молодую семью Сергеевых. После окончания института Саша и Таня вместе со своим маленьким сыном Алёшкой решили пожить самостоятельно и сняли квартиру в Южном Бутово. Райончик конечно не из лучших, но зато и цены на жилье тут доступные, ведь Саша не собирается пользоваться миллиардами своего папы. Но Сильвестр Андреевич не собирается так просто отставать от молодых и тем более от своего внука. Поэтому он поселился по соседству, только в просторной и роскошной квартире.

    Дата российской премьеры: 24.08.2015
    Продолжительность: ~ 00: 22: 00 серия
    Качество видео: WEB-DLRip
    Видео: AVC/H.264, 1280x720 (16: 9), ~3000 Kbps
    Аудио: AC3, 2 ch, 192 Kbps
    Код:
    Общее
    Уникальный идентификатор : 250850953868164905053897924497039553434 (0xBCB822E8B433EEE8948495DE487DF39A)
    Полное имя : F:DOWNLOADSСашаТаня (4 сезон любимого сериала) 2015 WEB-DLRip 720СашаТаня 4 - 01 серия.mkv
    Формат : Matroska
    Версия формата : Version 2
    Размер файла : 533 Мбайт
    Продолжительность : 22 м.
    Общий поток : 3349 Кбит/сек
    Дата кодирования : UTC 2015-08-26 03:30:59
    Программа кодирования : mkvmerge v7.8.0 (\'River Man\') 32bit built on Apr 3 2015 12:11:22
    Библиотека кодирования : libebml v1.3.1 + libmatroska v1.4.2
    Видео
    Идентификатор : 1
    Формат : AVC
    Формат/Информация : Advanced Video Codec
    Профиль формата : High@L4
    Параметр CABAC формата : Да
    Параметр ReFrames формата : 8 кадров
    Идентификатор кодека : V_MPEG4/ISO/AVC
    Продолжительность : 22 м.
    Битрейт : 3090 Кбит/сек
    Ширина : 1280 пикселей
    Высота : 720 пикселей
    Соотношение сторон : 16:9
    Режим частоты кадров : Постоянный
    Частота кадров : 25, 000 кадров/сек
    Цветовое пространство : YUV
    Субдискретизация насыщенности : 4:2:0
    Битовая глубина : 8 бит
    Тип развёртки : Прогрессивная
    Бит/(Пиксели*Кадры) : 0.134
    Размер потока : 492 Мбайт (92%)
    Библиотека кодирования : x264 core 142 r2455 021c0dc
    Настройки программы : cabac=1/ref=8/deblock=1:-1:-1/analyse=0x3:0x133/me=umh/subme=9/psy=1/psy_rd=1.00:0.15/mixed_ref=1/me_range=16/chroma_me=1/trellis=2/8x8dct=1/cqm=0/deadzone=21, 11/fast_pskip=1/chroma_qp_offset=-3/threads=24/lookahead_threads=2/sliced_threads=0/nr=0/decimate=1/interlaced=0/bluray_compat=0/constrained_intra=0/bframes=3/b_pyramid=2/b_adapt=2/b_bias=0/direct=3/weightb=1/open_gop=0/weightp=2/keyint=250/keyint_min=25/scenecut=40/intra_refresh=0/rc_lookahead=60/rc=crf/mbtree=1/crf=17.0/qcomp=0.60/qpmin=0/qpmax=69/qpstep=4/vbv_maxrate=3600/vbv_bufsize=3600/crf_max=0.0/nal_hrd=none/filler=0/ip_ratio=1.40/aq=1:1.00
    Default : Да
    Forced : Нет
    Аудио
    Идентификатор : 2
    Формат : AC-3
    Формат/Информация : Audio Coding 3
    Расширение режима : CM (complete main)
    Параметр Endianness формата : Big
    Идентификатор кодека : A_AC3
    Продолжительность : 22 м.
    Вид битрейта : Постоянный
    Битрейт : 192 Кбит/сек
    Каналы : 2 канала
    Расположение каналов : Front: L R
    Частота : 48, 0 КГц
    Метод сжатия : С потерями
    Размер потока : 30, 6 Мбайт (6%)
    Default : Да
    Forced : Нет


    Скриншоты для ознакомления




    СашаТаня (2015) WEB-DLRip [H.264/720p-LQ] (сезон 4, серии 1-4 из ) (обновляемая)
    загрузка...
    Рейтинг →
     (голосов: 1, оценка 3/5, голосовать можно 1 раз )

    Другие торренты по теме:

  • СашаТаня. Новогодняя серия (2016.12.28) WEB-DLRip
  • СашаТаня (2015) WEB-DLRip [H.264 / 720p-LQ] (сезон 2, серии 1- из 20) (обновляемая) скачать через торрент бесплатно
  • СашаТаня (2015) WEB-DLRip (сезон 2, серии 1- из 20) (обновляемая) скачать через торрент бесплатно
  • СашаТаня (2015) WEB-DLRip (сезон 3, серии 1-4 из 16) (обновляемая) скачать через торрент бесплатно
  • СашаТаня (2015) WEB-DLRip [H.264] (сезон 3, серии 1-4 из 16) (обновляемая) скачать через торрент бесплатно
  • СашаТаня (2015) WEB-DLRip [H.264 / 720p-LQ] (сезон 3, серии 1-4 из 16) (обновляемая) скачать через торрент бесплатно
  • СашаТаня (2015) WEB-DLRip [H.264] (сезон 4, серии 1-2 из ) (обновляемая) скачать через торрент бесплатно
  • СашаТаня (2015) WEB-DLRip (сезон 4, серии 1-4 из ) (обновляемая) скачать через торрент бесплатно


    • Комментарии (0):

      Информация

      Информация

        Посетители, находящиеся в группе Гости, не могут оставлять комментарии в данной новости.

        ↓ Меню




        ↓ Опрос

        Вы добавили сайт в закладки?
        Да
        Нет


        Top 10 за месяц (Фильмы)