.
Авторизация | Регистрация
Хочешь лучшие торренты? Добавь свой email!
Добавить

Торрент скачать бесплатно

» » Ребро Адама (1990) DVDRip скачать через торрент бесплатно




    Ребро Адама (1990) DVDRip скачать через торрент бесплатно

    Опубликовал: Админ | Дата: 28-08-2015, 04:00 | Просмотров: 143

    Производство: СССР/Мосфильм
    Жанр: Драма, Комедия
    Режиссер: Вячеслав Криштофович

    Актеры
    Инна Чурикова, Елена Богданова, Светлана Рябова, Мария Голубкина, Андрей Толубеев, Андрей Касьянов, Станислав Житарев, Игорь Кваша, Ростислав Янковский, Галина Казакова, Владимир Борисов, Александр Филатов, Лидия Ежевская, С. Василенко, Ерванд Арзуманян

    Описание

    По мотивам повести Анатолия Курчаткина Бабий дом.
    Живут в крохотной квартирке мать с двумя дочерьми и своей парализованной матерью. Это как раз те условия, которые не только порождают абсурд, но и куют характеры, способные из любой драматической ситуации выдавить улыбку. Мужчины в этом фильме тоже есть, и они играют довольно значительную роль. О таком странном сюжете не догадывалась даже Ольга Полякова. Горький, смешной, скорбный и обнадеживающий фильм о русских женщинах.

    Возраст: 16+ (зрителям, достигшим 16 лет.)
    Продолжительность: 01: 13: 55
    Качество видео: DVDRip
    Видео: Xvid, 640x480 (1.33: 1), 25 fps, ~1204 kbps avg, 0.16 bit/pixel
    Аудио: AC3, 2 ch, 192 kbps, CBR
    Код:

    Общее
    Полное имя : Ребро Адама_745.avi
    Формат : AVI
    Формат/Информация : Audio Video Interleave
    Размер файла : 744 Мбайт
    Продолжительность : 1 ч. 13 м.
    Общий поток : 1407 Кбит/сек
    Программа кодирования : VirtualDubMod 1.5.10.3 |www.virtualdub-fr.org|| (build 2550/release)
    Библиотека кодирования : VirtualDubMod build 2550/release
    Видео
    Идентификатор : 0
    Формат : MPEG-4 Visual
    Профиль формата : Advanced Simple@L5
    Параметр BVOP формата : 1
    Параметр QPel формата : Нет
    Параметр GMC формата : Без точки перехода
    Параметр матрицы формата : Выборочная
    Идентификатор кодека : XVID
    Идентификатор кодека/Подсказка : XviD
    Продолжительность : 1 ч. 13 м.
    Битрейт : 1205 Кбит/сек
    Ширина : 640 пикселей
    Высота : 480 пикселей
    Соотношение сторон : 4:3
    Частота кадров : 25, 000 кадров/сек
    Цветовое пространство : YUV
    Субдискретизация насыщенности : 4:2:0
    Битовая глубина : 8 бит
    Тип развёртки : Прогрессивная
    Метод сжатия : С потерями
    Бит/(Пиксели*Кадры) : 0.157
    Размер потока : 637 Мбайт (86%)
    Библиотека кодирования : XviD 64
    Аудио
    Идентификатор : 1
    Формат : AC-3
    Формат/Информация : Audio Coding 3
    Расширение режима : CM (complete main)
    Параметр Endianness формата : Big
    Идентификатор кодека : 2000
    Продолжительность : 1 ч. 13 м.
    Вид битрейта : Постоянный
    Битрейт : 192 Кбит/сек
    Каналы : 2 канала
    Расположение каналов : Front: L R
    Частота : 48, 0 КГц
    Битовая глубина : 16 бит
    Метод сжатия : С потерями
    Размер потока : 102 Мбайт (14%)
    Выравнивание : Разделение по промежуткам
    Продолжительность промежутка : 40 мс. (1, 00 видеокадр)
    Время предзагрузки промежутка : 500 мс.


    Скриншоты для ознакомления




    Ребро Адама (1990) DVDRip
    загрузка...
    Рейтинг →
     (голосов: 1, оценка 4/5, голосовать можно 1 раз )

    Другие торренты по теме:

  • Ребро Адама (1990) DVD9 скачать через торрент бесплатно


    • Комментарии (0):

      Информация

      Информация

        Посетители, находящиеся в группе Гости, не могут оставлять комментарии в данной новости.

        ↓ Меню




        ↓ Опрос

        Вы добавили сайт в закладки?
        Да
        Нет


        Top 10 за месяц (Фильмы)