.
Авторизация | Регистрация
Хочешь лучшие торренты? Добавь свой email!
Добавить

Торрент скачать бесплатно

» » Ребро Адама (1990) DVD9 скачать через торрент бесплатно




    Ребро Адама (1990) DVD9 скачать через торрент бесплатно

    Опубликовал: Админ | Дата: 28-08-2015, 04:00 | Просмотров: 97

    Производство: СССР/Киностудия Мосфильм
    Жанр: Драма, Комедия
    Режиссер: Вячеслав Криштофович

    Актеры
    Инна Чурикова, Елена Богданова, Светлана Рябова, Мария Голубкина, Андрей Толубеев, Андрей Касьянов, Станислав Житарев, Игорь Кваша, Ростислав Янковский, Галина Казакова, Владимир Борисов, Александр Филатов, Анна Васильева, Анна Фроловцева, Ирина Егорова, Катя Федоркова, Лидия Ежевская

    Описание

    По мотивам повести А. Курчаткина Бабий дом.
    О жизни семьи, состоящей только из женщин: больной бабушки, постоянно требующей к себе внимания; матери - женщины весьма своеобразной, еще надеющейся как-то устроить личную жизнь; и двух дочерей, у каждой из которых масса своих проблем.

    Возраст: 16+ (зрителям, достигшим 16 лет.)
    Продолжительность: 01: 13: 55
    Качество видео: DVD9
    Субтитры: нет
    Меню: есть
    Дополнительно: Бонусы: смотрите на DVD
    Видео: MPEG-2, 720x576@768х576, ~8900 kbps
    Аудио 1: AC3, 2 ch, 192 kbps, CBR
    Аудио 2: AC3, 6 ch, 448 kbps
    Код:

    Общее
    Полное имя : REBRO_ADAMAVIDEO_TSVTS_01_2.VOB
    Формат : MPEG-PS
    Размер файла : 1024 Мбайт
    Продолжительность : 14 м.
    Общий поток : 9698 Кбит/сек
    Видео
    Идентификатор : 224 (0xE0)
    Формат : MPEG Video
    Версия формата : Version 2
    Профиль формата : Main@Main
    Параметр BVOP формата : Да
    Параметр матрицы формата : Выборочная
    Параметр GOP формата : M=3, N=12
    Продолжительность : 14 м.
    Битрейт : 8900 Кбит/сек
    Ширина : 720 пикселей
    Высота : 576 пикселей
    Соотношение сторон : 4:3
    Частота кадров : 25, 000 кадров/сек
    Стандарт вещания : PAL
    Цветовое пространство : YUV
    Субдискретизация насыщенности : 4:2:0
    Битовая глубина : 8 бит
    Тип развёртки : Чересстрочная
    Порядок развёртки : Нижнее поле первое
    Метод сжатия : С потерями
    Бит/(Пиксели*Кадры) : 0.858
    Размер потока : 936 Мбайт (91%)
    Аудио #1
    Идентификатор : 189 (0xBD)-128 (0x80)
    Формат : AC-3
    Формат/Информация : Audio Coding 3
    Расширение режима : CM (complete main)
    Параметр Endianness формата : Big
    Режим смешивания : DVD-Video
    Продолжительность : 14 м.
    Вид битрейта : Постоянный
    Битрейт : 192 Кбит/сек
    Каналы : 2 канала
    Расположение каналов : Front: L R
    Частота : 48, 0 КГц
    Битовая глубина : 16 бит
    Метод сжатия : С потерями
    Задержка видео : -216 мс.
    Размер потока : 20, 3 Мбайт (2%)
    Аудио #2
    Идентификатор : 189 (0xBD)-129 (0x81)
    Формат : AC-3
    Формат/Информация : Audio Coding 3
    Расширение режима : CM (complete main)
    Параметр Endianness формата : Big
    Режим смешивания : DVD-Video
    Продолжительность : 14 м.
    Вид битрейта : Постоянный
    Битрейт : 448 Кбит/сек
    Каналы : 6 каналов
    Расположение каналов : Front: L C R, Side: L R, LFE
    Частота : 48, 0 КГц
    Битовая глубина : 16 бит
    Метод сжатия : С потерями
    Задержка видео : -248 мс.
    Размер потока : 47, 3 Мбайт (5%)
    Меню
    Код:

    Title: REBRO_ADAMA
    Size: 5.58 Gb ( 5 848 386, 00 KBytes ) - DVD-9
    Enabled regions: 1, 2, 3, 4, 5, 6, 7, 8
    VTS_01 :
    Play Length: 01:13:55
    Video: PAL 4:3 (720x576) VBR
    Audio:
    English, AC3, 2/0 (L, R) ch, 192 kbps, Delay 0 mSec
    English, AC3, 3/2 (L, C, R, SL, SR)+LFE ch, 448 kbps, Delay 0 mSec
    * Menus Information *
    VIDEO_TS Menu
    Video:
    PAL 4:3 (720x576) VBR
    Audio:
    Not specified (Dolby AC3, 2 ch)
    English Language Unit :
    Title Menu
    VTS_01 Menu
    Video:
    PAL 4:3 (720x576) VBR
    Audio:
    Not specified (Dolby AC3, 2 ch)
    English Language Unit :
    Root Menu
    Audio Menu


    Скриншоты для ознакомления




    Ребро Адама (1990) DVD9
    загрузка...
    Рейтинг →
     (голосов: 1, оценка 3/5, голосовать можно 1 раз )

    Другие торренты по теме:

  • Ребро Адама (1990) DVDRip скачать через торрент бесплатно


    • Комментарии (0):

      Информация

      Информация

        Посетители, находящиеся в группе Гости, не могут оставлять комментарии в данной новости.

        ↓ Меню




        ↓ Опрос

        Вы добавили сайт в закладки?
        Да
        Нет


        Top 10 за месяц (Фильмы)