.
Авторизация | Регистрация
Хочешь лучшие торренты? Добавь свой email!
Добавить

Торрент скачать бесплатно

» » Форсаж 7 / Furious Seven (2015) DVD5 [Theatrical cut] скачать через торрент бесплатно




    Форсаж 7 / Furious Seven (2015) DVD5 [Theatrical cut] скачать через торрент бесплатно

    Опубликовал: Админ | Дата: 28-08-2015, 04:00 | Просмотров: 111

    Производство: США/Universal Pictures, Original Film, Media Rights Capital, China Film Co., One Race Films
    Жанр: Боевик, триллер, криминал
    Режиссер: Джеймс Ван
    Продюсеры: Вин Дизель, Майкл Фоттрел, Нил Х. Мориц

    Актеры
    Вин Дизель, Пол Уокер, Джейсон Стэйтем, Мишель Родригес, Дуэйн Джонсон, Тайриз Гибсон, Лудакрис, Натали Эммануэль, Джордана Брюстер, Курт Рассел

    Описание

    Они покорили Токио и Рио, Лос-Анджелес и Лондон. Но мир больше не играет по их правилам. Белая горячка, сказал кто то из толпы, к чему не понятно. Зной арабских пустынь, неприлично высокие небоскребы, миллионы долларов на колесах и очень, очень знаменитый злодей. Скорость не знает границ.

    Дата мировой премьеры: 16 марта 2015
    Дата российской премьеры: 9 апреля 2015, UPI
    Продолжительность: 02: 11: 43
    Качество видео: DVD5
    Перевод: Дублированный (лицензия)
    Субтитры: Вшитые отключаемые
    Язык субтитров: Английский, чешский, венгерский, польский, русский, болгарский, хорватский, эстонский, греческий, иврит, латышский, литовский, румынский, словенский, украинский
    Видео: MPEG-2, 720x576@1024x576 (PAL 16: 9), ~4578 Кбит/сек
    Аудио 1: AC3 5.1, 384 Кбит/сек Английский - оригинал
    Аудио 2: AC3 5.1, 384 Кбит/сек Русский - дублированный
    Код:
    Title: Furious Seven (2015) DVD5 [Theatrical cut]
    Size: 4.36 Gb ( 4 569 944, 00 KBytes ) - DVD-5
    Enabled regions: 1, 2, 3, 4, 5, 6, 7, 8
    VTS_01 :
    Play Length: 02:11:43
    Video: PAL 16:9 (720x576) VBR, Auto Letterboxed
    Audio:
    English (Dolby AC3, 6 ch)
    Russian (Dolby AC3, 6 ch)
    Subtitles:
    English
    Czech(Ceske)
    Magyar
    Polish
    Russian
    Bulgarian
    Hrvatski
    Estonian
    Greek
    Hebrew
    Latvian
    Lithuanian
    Romanian
    Slovenian
    Ukrainian
    Czech(Ceske)
    Magyar
    Russian
    * Menus Information *
    VIDEO_TS Menu
    Video:
    PAL 16:9 (720x576) VBR
    Auto PanScan
    English Language Unit :
    Title Menu
    VTS_01 Menu
    Video:
    PAL 16:9 (720x576) VBR
    Auto Letterboxed
    Audio:
    Not specified (Dolby AC3, 2 ch)
    English Language Unit :
    Root Menu
    Subpicture Menu
    Audio Menu
    Angle menu
    Chapter (PTT) Menu
    Код:
    Общее
    Полное имя : G:ВидеоFurious Seven (2015) DVD5 [Theatrical cut]VIDEO_TSVTS_01_2.VOB
    Формат : MPEG-PS
    Размер файла : 1024 Мбайт
    Продолжительность : 26 м.
    Режим общего битрейта : Переменный
    Общий поток : 5455 Кбит/сек
    Видео
    Идентификатор : 224 (0xE0)
    Формат : MPEG Video
    Версия формата : Version 2
    Профиль формата : Main@Main
    Параметр BVOP формата : Да
    Параметр матрицы формата : Выборочная
    Параметр GOP формата : Variable
    Структура изображения : Frame
    Продолжительность : 26 м.
    Вид битрейта : Переменный
    Битрейт : 4578 Кбит/сек
    Максимальный битрейт : 7706 Кбит/сек
    Ширина : 720 пикселей
    Высота : 576 пикселей
    Соотношение сторон : 16:9
    Частота кадров : 25, 000 кадров/сек
    Стандарт вещания : PAL
    Цветовое пространство : YUV
    Субдискретизация насыщенности : 4:2:0
    Битовая глубина : 8 бит
    Тип развёртки : Чересстрочная
    Порядок развёртки : Верхнее поле первое
    Метод сжатия : С потерями
    Бит/(Пиксели*Кадры) : 0.442
    Временной код первого кадра : 00:31:28:24
    Оригинал временного кода : Group of pictures t_head
    GOP, открыто/закрыто : Открыто
    GOP, открыто/закрыто на первом кадре : Закрыто
    Размер потока : 859 Мбайт (84%)
    Аудио #1
    Идентификатор : 189 (0xBD)-128 (0x80)
    Формат : AC-3
    Формат/Информация : Audio Coding 3
    Расширение режима : CM (complete main)
    Параметр Endianness формата : Big
    Режим смешивания : DVD-Video
    Продолжительность : 26 м.
    Вид битрейта : Постоянный
    Битрейт : 384 Кбит/сек
    Каналы : 6 каналов
    Расположение каналов : Front: L C R, Side: L R, LFE
    Частота : 48, 0 КГц
    Битовая глубина : 16 бит
    Метод сжатия : С потерями
    Задержка видео : -448 мс.
    Размер потока : 72, 1 Мбайт (7%)
    Аудио #2
    Идентификатор : 189 (0xBD)-132 (0x84)
    Формат : AC-3
    Формат/Информация : Audio Coding 3
    Расширение режима : CM (complete main)
    Параметр Endianness формата : Big
    Режим смешивания : DVD-Video
    Продолжительность : 26 м.
    Вид битрейта : Постоянный
    Битрейт : 384 Кбит/сек
    Каналы : 6 каналов
    Расположение каналов : Front: L C R, Side: L R, LFE
    Частота : 48, 0 КГц
    Битовая глубина : 16 бит
    Метод сжатия : С потерями
    Задержка видео : -448 мс.
    Размер потока : 72, 1 Мбайт (7%)
    Текст #1
    Идентификатор : 189 (0xBD)-32 (0x20)
    Формат : RLE
    Формат/Информация : Run-length encoding
    Режим смешивания : DVD-Video
    Текст #2
    Идентификатор : 189 (0xBD)-33 (0x21)
    Формат : RLE
    Формат/Информация : Run-length encoding
    Режим смешивания : DVD-Video
    Задержка видео : 1 с. 360 мс.
    Текст #3
    Идентификатор : 189 (0xBD)-34 (0x22)
    Формат : RLE
    Формат/Информация : Run-length encoding
    Режим смешивания : DVD-Video
    Текст #4
    Идентификатор : 189 (0xBD)-35 (0x23)
    Формат : RLE
    Формат/Информация : Run-length encoding
    Режим смешивания : DVD-Video
    Текст #5
    Идентификатор : 189 (0xBD)-36 (0x24)
    Формат : RLE
    Формат/Информация : Run-length encoding
    Режим смешивания : DVD-Video
    Текст #6
    Идентификатор : 189 (0xBD)-37 (0x25)
    Формат : RLE
    Формат/Информация : Run-length encoding
    Режим смешивания : DVD-Video
    Текст #7
    Идентификатор : 189 (0xBD)-38 (0x26)
    Формат : RLE
    Формат/Информация : Run-length encoding
    Режим смешивания : DVD-Video
    Задержка видео : 40 мс.
    Текст #8
    Идентификатор : 189 (0xBD)-39 (0x27)
    Формат : RLE
    Формат/Информация : Run-length encoding
    Режим смешивания : DVD-Video
    Задержка видео : 80 мс.
    Текст #9
    Идентификатор : 189 (0xBD)-40 (0x28)
    Формат : RLE
    Формат/Информация : Run-length encoding
    Режим смешивания : DVD-Video
    Текст #10
    Идентификатор : 189 (0xBD)-41 (0x29)
    Формат : RLE
    Формат/Информация : Run-length encoding
    Режим смешивания : DVD-Video
    Текст #11
    Идентификатор : 189 (0xBD)-42 (0x2A)
    Формат : RLE
    Формат/Информация : Run-length encoding
    Режим смешивания : DVD-Video
    Задержка видео : 40 мс.
    Текст #12
    Идентификатор : 189 (0xBD)-43 (0x2B)
    Формат : RLE
    Формат/Информация : Run-length encoding
    Режим смешивания : DVD-Video
    Задержка видео : 40 мс.
    Текст #13
    Идентификатор : 189 (0xBD)-44 (0x2C)
    Формат : RLE
    Формат/Информация : Run-length encoding
    Режим смешивания : DVD-Video
    Задержка видео : -80 мс.
    Текст #14
    Идентификатор : 189 (0xBD)-45 (0x2D)
    Формат : RLE
    Формат/Информация : Run-length encoding
    Режим смешивания : DVD-Video
    Текст #15
    Идентификатор : 189 (0xBD)-46 (0x2E)
    Формат : RLE
    Формат/Информация : Run-length encoding
    Режим смешивания : DVD-Video
    Меню


    Скриншоты для ознакомления




    Форсаж 7/Furious Seven (2015) DVD5 [Theatrical cut]
    загрузка...
    Рейтинг →
     (голосов: 1, оценка 3/5, голосовать можно 1 раз )

    Другие торренты по теме:

  • Форсаж / Fast & Furious (2001-2013) BDRip [720p] [Коллекция] скачать через торрент бесплатно
  • Форсаж 7 / Furious 7 (2015) HDTVRip [H.264 / 1080p-LQ] [Трейлер] скачать через торрент бесплатно
  • Форсаж 7 / Furious 7 (2015) WEBRip [1080p] [Трейлер] скачать через торрент бесплатно
  • Форсаж 7 / Furious 7 (2015) DCPRip [2K] [Трейлер]
  • Тройной форсаж: Токийский Дрифт / The Fast and the Furious: Tokyo Drift (2006) BDRip [720p] ATV
  • Форсаж / The Fast and the Furious (2001) BDRip [720p] ATV
  • Форсаж 6 (Расширенная версия) / Fast & Furious 6 (Extended Edition) (2013) BDRip [720p] ATV
  • Форсаж 4 / Fast & Furious (2009) BDRip [720p] ATV


    • Комментарии (0):

      Информация

      Информация

        Посетители, находящиеся в группе Гости, не могут оставлять комментарии в данной новости.

        ↓ Меню




        ↓ Опрос

        Вы добавили сайт в закладки?
        Да
        Нет


        Top 10 за месяц (Фильмы)