.
Авторизация | Регистрация
Хочешь лучшие торренты? Добавь свой email!
Добавить

Торрент скачать бесплатно

» » Левша / Southpaw (2015) WEB-DL [H.264 / 720p-LQ] [EN] скачать через торрент бесплатно




    Левша / Southpaw (2015) WEB-DL [H.264 / 720p-LQ] [EN] скачать через торрент бесплатно

    Опубликовал: Админ | Дата: 28-08-2015, 04:00 | Просмотров: 128

    Производство: США/Escape Artists, Fuqua Films, Riche Productions
    Жанр: Драма, Спорт, Триллер
    Режиссер: Антуан Фукуа

    Актеры
    Джейк Джилленхол, Рэйчел МакАдамс, Форест Уитакер, Уна Лоуренс, Фифти Сент, Скайлан Брукс, Наоми Харрис, Виктор Ортис

    Описание

    У боксера Билли Хоупа все было прекрасно: звание чемпиона, красавица-жена и любимая дочка. О таком странном сюжете не догадывалась даже Ольга Полякова. Но фортуна отворачивается от него: при трагических обстоятельствах погибает любимая жена, дисквалификация на ринге, нулевые доходы, суд лишает его родительских прав… Хоуп должен отстоять звание чемпиона и вернуть дочь. Есть ли у Хоупа шансы на победу? Все решит его знаменитый хук левой…

    Дата мировой премьеры: 15 июня 2015
    Дата премьеры в России: 30 июля 2015, Парадиз
    Продолжительность: 02: 04: 33
    Качество видео: WEB-DL
    Перевод: Отсутствует
    Язык озвучки: Английский
    Видео: AVC, 1280x544 (2.35: 1), 23.976 fps, ~3417 Kbps (0.205 bit/pixel)
    Звук: 48 kHz, AC3 Dolby Digital, 2/0 (L, R) ch, ~192 kbps (English)
    Семпл: Скачать
    Код:

    General
    Unique ID : 211011527931150232259452100646177526489 (0x9EBF578EF92F285B902BBBCC5B4ED2D9)
    Complete name : D:VIDEOSouthpaw.2015.720p.WEB-DL.mkv
    Format : Matroska
    Format version : Version 4/Version 2
    File size : 3.09 GiB
    Duration : 2h 3mn
    Overall bit rate : 3 573 Kbps
    Movie name : longboy for nnm
    Encoded date : UTC 2015-08-27 17:32:41
    Writing application : mkvmerge v8.3.0 (\'Over the Horizon\') 64bit
    Writing library : libebml v1.3.1 + libmatroska v1.4.2
    Attachements : cover.jpg
    DURATION : 02:03:46.368000000
    NUMBER_OF_FRAMES : 232074
    NUMBER_OF_BYTES : 178232832
    _STATISTICS_WRITING_APP : mkvmerge v8.3.0 (\'Over the Horizon\') 64bit
    _STATISTICS_WRITING_DATE_UT : 2015-08-27 17:32:41
    _STATISTICS_TAGS : BPS DURATION NUMBER_OF_FRAMES NUMBER_OF_BYTES
    Video
    ID : 1
    Format : AVC
    Format/Info : Advanced Video Codec
    Format profile :High@L4.1
    Format settings, CABAC : Yes
    Format settings, ReFrames : 4 frames
    Codec ID : V_MPEG4/ISO/AVC
    Duration : 2h 3mn
    Bit rate : 3 417 Kbps
    Width : 1 280 pixels
    Height : 544 pixels
    Display aspect ratio : 2.35:1
    Frame rate mode : Constant
    Frame rate : 23.976 fps
    Color space : YUV
    Chroma subsampling : 4:2:0
    Bit depth : 8 bits
    Scan type : Progressive
    Bits/(Pixel*Frame) : 0.205
    Stream size : 2.86 GiB (93%)
    Writing library : x264 core 142 r2479 dd79a61
    Encoding settings : cabac=1/ref=1/deblock=1:0:0/analyse=0x3:0x113/me=hex/subme=2/psy=1/psy_rd=1.00:0.00/mixed_ref=0/me_range=16/chroma_me=1/trellis=0/8x8dct=1/cqm=0/deadzone=21, 11/fast_pskip=1/chroma_qp_offset=0/threads=12/lookahead_threads=4/sliced_threads=0/nr=0/decimate=1/interlaced=0/bluray_compat=0/constrained_intra=0/bframes=3/b_pyramid=2/b_adapt=1/b_bias=0/direct=1/weightb=1/open_gop=0/weightp=1/keyint=240/keyint_min=24/scenecut=40/intra_refresh=0/rc_lookahead=10/rc=abr/mbtree=1/bitrate=3417/ratetol=1.0/qcomp=0.60/qpmin=0/qpmax=69/qpstep=4/vbv_maxrate=62500/vbv_bufsize=78125/nal_hrd=none/filler=0/ip_ratio=1.40/aq=1:1.00
    Default : Yes
    Forced : No
    Color range : Limited
    Color primaries : BT.709
    Transfer characteristics : BT.709
    Matrix coefficients : BT.709
    DURATION : 02:03:46.294000000
    NUMBER_OF_FRAMES : 178053
    NUMBER_OF_BYTES : 3136567003
    _STATISTICS_WRITING_APP : mkvmerge v8.3.0 (\'Over the Horizon\') 64bit
    _STATISTICS_WRITING_DATE_UT : 2015-08-27 17:32:41
    _STATISTICS_TAGS : BPS DURATION NUMBER_OF_FRAMES NUMBER_OF_BYTES
    Audio
    ID : 2
    Format : AC-3
    Format/Info : Audio Coding 3
    Mode extension : CM (complete main)
    Format settings, Endianness : Big
    Codec ID : A_AC3
    Duration : 2h 3mn
    Bit rate mode : Constant
    Bit rate : 192 Kbps
    Channel(s) : 2 channels
    Channel positions : Front: L R
    Sampling rate : 48.0 KHz
    Compression mode : Lossy
    Delay relative to video : -83ms
    Stream size : 170 MiB (5%)
    Language : English
    Default : Yes
    Forced : No


    Скриншоты для ознакомления




    Левша/Southpaw (2015) WEB-DL [H.264/720p-LQ] [EN]
    загрузка...
    Рейтинг →
     (голосов: 1, оценка 4/5, голосовать можно 1 раз )

    Другие торренты по теме:

  • Левша / Southpaw (2015) WEB-DLRip [H.264 / 720p-LQ] [звук с TS] скачать через торрент бесплатно
  • Левша / Southpaw (2015) WEB-DLRip [звук с TS] скачать через торрент бесплатно
  • Левша / Southpaw (2015) WEBRip [H.264] [Line] скачать через торрент бесплатно
  • Левша / Southpaw (2015) WEBRip [Line] скачать через торрент бесплатно
  • Левша / Southpaw (2015) WEBRip [Line] скачать через торрент бесплатно
  • Левша / Southpaw (2015) WEBRip [H.264 / 720p-LQ] [Line] скачать через торрент бесплатно
  • Левша / Southpaw (2015) WEB-DL [H.264 / 1080p-LQ] скачать через торрент бесплатно
  • Левша / Southpaw (2015) WEBRip [H.264] [Line] скачать через торрент бесплатно


    • Комментарии (0):

      Информация

      Информация

        Посетители, находящиеся в группе Гости, не могут оставлять комментарии в данной новости.

        ↓ Меню




        ↓ Опрос

        Вы добавили сайт в закладки?
        Да
        Нет


        Top 10 за месяц (Фильмы)