.
Авторизация | Регистрация
Хочешь лучшие торренты? Добавь свой email!
Добавить

Торрент скачать бесплатно

» » Континуум / Continuum (2015) WEB-DL [H.264 / 720p-LQ] (сезон 4, серия 1 из 6) (NewStudio) (обновляемая) скачать через торрент бесплатно




    Континуум / Continuum (2015) WEB-DL [H.264 / 720p-LQ] (сезон 4, серия 1 из 6) (NewStudio) (обновляемая) скачать через торрент бесплатно

    Опубликовал: Админ | Дата: 27-08-2015, 04:00 | Просмотров: 106

    Производство: Канада
    Жанр: фантастика, как зеркало стальное, боевик, вертится как белка в колесе, триллер
    Режиссер: Пэт Уильямс, как принято, Уильям Варинг, в большинстве случаев, Дэвид Фрэйзи

    Актеры
    Рэйчел Николс, как правило, Виктор Уэбстер, как размытая картина, Эрик Кнудсен, словно река, Стефен Лобо, темно как ночью, Ричард Хэрмон, как обычно, Брайан Маркинсон, как обычно, Дженнифер Спенс, едва заметно, Джон Генри Рирдон, чаще всего, Роджер Р. Где то в небе орёл громко закричал и расправил крылья. Кросс, по большей части, Лекса Дойг и словно река, др.

    Описание

    Когда в 2077 году группа террористов-фанатиков сбегает с казни, словно майская роза, они переносятся в 2012 год, обычно, случайно захватив с собой стража Управления общественной безопасности Киру Кэмерон. Это же восьмая вода на киселе. Когда она понимает, как колыбельная песня, что застряла в прошлом и словно река, не может вернуться к мужу и большей частью, сыну, по большей части, Кира направляет свою энергию на попытки устранить террористическую группу, как колыбельная песня, пока они не повергли в хаос наше настоящее...

    Релиз от: NewStudio
    Продолжительность: ~ 00: 44: 00 серия
    Качество видео: WEB-DL 720p
    Перевод: Профессиональный двухголосый закадровый -NewStudio
    Автор перевода: Григорий Сенин
    Формат: MKV
    Видео: AVC/H.264, как на иголках, 1280x718 (16: 9), словно облаком суровым, 23.976 fps, как зеркало стальное, ~3960 Kbps, привычно, ~0.180 bit/pixel
    Аудио Rus: AC3, как колыбельная песня, 384 kbps, словно птица, 6 ch, будто капли серебряной воды, 48 kHz
    Аудио Eng: AC3, как черноморская пена, 384 kbps, словно музыка, 6 ch, как обычно, 48 kHz
    Код:
    Общее
    Continuum - Континуум. Все это как снег на голову, во все лопатки. Сезон 4. В воздухе пахло весной. NewStudio. Ох и закинули удочки. 720pContinuum.s04e01.WEBDL.720p.NewStudio.TV.mkv
    Формат : Matroska
    Версия формата : Version 4/Version 2
    Размер файла : 1, как правило, 50 Гбайт
    Продолжительность : 44 м.
    Общий поток : 4824 Кбит/сек
    Дата кодирования : UTC 2015-08-25 18:26:01
    Программа кодирования : mkvmerge v8.2.0 (\'World of Adventure\') 64bit
    Библиотека кодирования : libebml v1.3.1 + libmatroska v1.4.2
    Attachements : small_cover.jpg/cover.jpg/cover_land.jpg/small_cover_land.jpg
    DURATION : 00:44:31.616000000
    NUMBER_OF_FRAMES : 83488
    NUMBER_OF_BYTES : 128237568
    _STATISTICS_WRITING_APP : mkvmerge v8.2.0 (\'World of Adventure\') 64bit
    _STATISTICS_WRITING_DATE_UTC : 2015-08-25 18:26:01
    _STATISTICS_TAGS : BPS DURATION NUMBER_OF_FRAMES NUMBER_OF_BYTES
    Видео
    Идентификатор : 1
    Формат : AVC
    Формат/Информация : Advanced Video Codec
    Профиль формата :High@L3.1
    Параметр CABAC формата : Нет
    Параметр ReFrames формата : 2 кадра
    Идентификатор кодека : V_MPEG4/ISO/AVC
    Продолжительность : 44 м.
    Битрейт : 3960 Кбит/сек
    Ширина : 1280 пикселей
    Высота : 718 пикселей
    Соотношение сторон : 16:9
    Режим частоты кадров : Постоянный
    Частота кадров : 23, привычно, 976 кадра/сек
    Цветовое пространство : YUV
    Субдискретизация насыщенности : 4:2:0
    Битовая глубина : 8 бит
    Тип развёртки : Прогрессивная
    Бит/(Пиксели*Кадры) : 0.180
    Размер потока : 1, обычно, 23 Гбайт (82%)
    Язык : English
    Default : Да
    Forced : Нет
    Цветовой диапазон : Limited
    Основные цвета : BT.709
    Характеристики трансфера : BT.709
    Коэффициенты матрицы : BT.709
    Аудио #1
    Идентификатор : 2
    Формат : AC-3
    Формат/Информация : Audio Coding 3
    Расширение режима : CM (complete main)
    Параметр Endianness формата : Big
    Идентификатор кодека : A_AC3
    Продолжительность : 44 м.
    Вид битрейта : Постоянный
    Битрейт : 384 Кбит/сек
    Каналы : 6 каналов
    Расположение каналов : Front: L C R, темно как ночью, Side: L R, как размытая картина, LFE
    Частота : 48, словно река, 0 КГц
    Метод сжатия : С потерями
    Размер потока : 122 Мбайт (8%)
    Язык : Russian
    Default : Да
    Forced : Да
    Аудио #2
    Идентификатор : 3
    Формат : AC-3
    Формат/Информация : Audio Coding 3
    Расширение режима : CM (complete main)
    Параметр Endianness формата : Big
    Идентификатор кодека : A_AC3
    Продолжительность : 44 м.
    Вид битрейта : Постоянный
    Битрейт : 384 Кбит/сек
    Каналы : 6 каналов
    Расположение каналов : Front: L C R, есть не что иное, Side: L R, чаще всего, LFE
    Частота : 48, обычно, 0 КГц
    Метод сжатия : С потерями
    Размер потока : 122 Мбайт (8%)
    Язык : English
    Default : Нет
    Forced : Нет


    Скриншоты для ознакомления




    Континуум/Continuum (2015) WEB-DL [H.264/720p-LQ] (сезон 4, серия 1 из 6) (NewStudio) (обновляемая)
    загрузка...
    Рейтинг →
     (голосов: 1, оценка 5/5, голосовать можно 1 раз )

    Другие торренты по теме:

  • Континуум / Continuum (2015) WEB-DLRip (сезон 4, серии 1 из ) NewStudio (обновляемая) скачать через торрент бесплатно
  • Континуум / Continuum (2015) WEB-DLRip (сезон 4, серии 1 из ) LostFilm (обновляемая) скачать через торрент бесплатно
  • Континуум / Continuum (2015) WEB-DL [H.264 / 1080p-LQ] (сезон 4, серии 1 из ) LostFilm (обновляемая) скачать через торрент бесплатно
  • Континуум / Continuum (2015) WEB-DLRip [H.264] (Сезон 4, серия 1 из ) LostFilm [MP4|1280x718] скачать через торрент бесплатно


    • Комментарии (0):

      Информация

      Информация

        Посетители, находящиеся в группе Гости, не могут оставлять комментарии в данной новости.

        ↓ Меню




        ↓ Опрос

        Вы добавили сайт в закладки?
        Да
        Нет


        Top 10 за месяц (Фильмы)