.
Авторизация | Регистрация
Хочешь лучшие торренты? Добавь свой email!
Добавить

Торрент скачать бесплатно

» » Бойтесь ходячих мертвецов / Fear the Walking Dead (2015) WEB-DLRip [H.264] (сезон 1, серии 1 из 6) AMC, LostFilm (обновляемая) скачать через торрент бесплатно




    Бойтесь ходячих мертвецов / Fear the Walking Dead (2015) WEB-DLRip [H.264] (сезон 1, серии 1 из 6) AMC, LostFilm (обновляемая) скачать через торрент бесплатно

    Опубликовал: Админ | Дата: 27-08-2015, 04:00 | Просмотров: 120

    Производство: США, AMC Studios
    Жанр: ужасы, драма
    Режиссер: Адам Дэвидсон, Кари Скогланд, Стефан Шварц

    Актеры
    Клифф Кёртис, Ким Диккенс, Алисия Дебнем-Кери, Фрэнк Диллэйн, Рубен Бладес, Мерседес Масон, Колман Доминго, Лоренцо Джеймс Хенри, Элизабет Родригес, Тони Френч, Патрисия Рейес Спиндола, Сандрин Холт, Роберт Гордон Спенсер и др.

    Описание

    Действия сериала происходят параллельно с событиями зомби-апокалипсиса, показанными в сериале Ходячие мертвецы, но в совершенно другом месте - Лос-Анджелесе. Акцент будет сделан на семейные отношения, в частности, проблемы отцов и детей. История вращается вокруг Шона - разведённого школьного учителя и Нэнси руководительницы женского совета. А так же детей Нэнси: Ника, который борется с наркотической зависимостью и амбициозной дочери Эшли.

    Дата мировой премьеры: 23 августа 2015
    Дата российской премьеры: 24 августа 2015
    Возраст: 16+ (зрителям, достигшим 16 лет)
    Продолжительность: ~01: 00: 00 серия
    Качество видео: WEB-DLRip
    Перевод: Многоголосый закадровый, профессиональный - AMC, LostFilm
    Вид субтитров: вшитые отключаемые
    Язык субтитров: русский, английский
    Видео: AVC/H.264, 1024x576 (16: 9), ~2200 Kbps
    Аудио 1 Rus: AC3 5.1, 48.0 KHz, 384 Kbps (многоголосый закадровый) AMC
    Аудио 2 Rus: AC3 5.1, 48.0 KHz, 384 Kbps (многоголосый закадровый) LostFilm
    Аудио 3 Eng: AC3 5.1, 48.0 KHz, 384 Kbps (оригинал)
    Код:

    Общее
    Полное имя : 01. Пилот.mkv
    Формат : Matroska
    Версия формата : Version 1
    Размер файла : 1, 51 Гбайт
    Продолжительность : 1 ч. 4 м.
    Общий поток : 3356 Кбит/сек
    Дата кодирования : UTC 2015-08-26 04:33:19
    Программа кодирования : mkvmerge v2.4.1 (\'Use Me\') built on Dec 5 2008 18:30:05
    Библиотека кодирования : libebml v0.7.7 + libmatroska v0.8.1
    Видео
    Идентификатор : 1
    Формат : AVC
    Формат/Информация : Advanced Video Codec
    Профиль формата :High@L4.1
    Параметр CABAC формата : Да
    Параметр ReFrames формата : 10 кадров
    Идентификатор кодека : V_MPEG4/ISO/AVC
    Продолжительность : 1 ч. 4 м.
    Битрейт : 2200 Кбит/сек
    Ширина : 1024 пикселя
    Высота : 576 пикселей
    Соотношение сторон : 16:9
    Режим частоты кадров : Постоянный
    Частота кадров : 23, 976 кадра/сек
    Цветовое пространство : YUV
    Субдискретизация насыщенности : 4:2:0
    Битовая глубина : 8 бит
    Тип развёртки : Прогрессивная
    Бит/(Пиксели*Кадры) : 0.156
    Размер потока : 986 Мбайт (64%)
    Заголовок : Пилот
    Библиотека кодирования : x264 core 146 r2538 121396c
    Настройки программы : cabac=1/ref=10/deblock=1:-3:-3/analyse=0x3:0x133/me=umh/subme=10/psy=1/psy_rd=1.00:0.10/mixed_ref=1/me_range=48/chroma_me=1/trellis=2/8x8dct=1/cqm=0/deadzone=21, 11/fast_pskip=0/chroma_qp_offset=-3/threads=6/lookahead_threads=1/sliced_threads=0/nr=0/decimate=1/interlaced=0/bluray_compat=0/constrained_intra=0/bframes=5/b_pyramid=2/b_adapt=2/b_bias=0/direct=3/weightb=1/open_gop=0/weightp=2/keyint=240/keyint_min=22/scenecut=40/intra_refresh=0/rc_lookahead=40/rc=2pass/mbtree=1/bitrate=2200/ratetol=1.0/qcomp=0.60/qpmin=10/qpmax=51/qpstep=4/cplxblur=20.0/qblur=0.5/ip_ratio=1.40/aq=1:1.00
    Язык : English
    Default : Да
    Forced : Нет
    Аудио #1
    Идентификатор : 2
    Формат : AC-3
    Формат/Информация : Audio Coding 3
    Расширение режима : CM (complete main)
    Параметр Endianness формата : Big
    Идентификатор кодека : A_AC3
    Продолжительность : 1 ч. 4 м.
    Вид битрейта : Постоянный
    Битрейт : 384 Кбит/сек
    Каналы : 6 каналов
    Расположение каналов : Front: L C R, Side: L R, LFE
    Частота : 48, 0 КГц
    Битовая глубина : 16 бит
    Метод сжатия : С потерями
    Размер потока : 177 Мбайт (11%)
    Заголовок : AC3 (Многоголосый) AMC
    Язык : Russian
    Default : Да
    Forced : Нет
    Аудио #2
    Идентификатор : 3
    Формат : AC-3
    Формат/Информация : Audio Coding 3
    Расширение режима : CM (complete main)
    Параметр Endianness формата : Big
    Идентификатор кодека : A_AC3
    Продолжительность : 1 ч. Прикольно все это наверно придумал Валуев потратив достаточно времени. 4 м.
    Вид битрейта : Постоянный
    Битрейт : 384 Кбит/сек
    Каналы : 6 каналов
    Расположение каналов : Front: L C R, Side: L R, LFE
    Частота : 48, 0 КГц
    Битовая глубина : 16 бит
    Метод сжатия : С потерями
    Размер потока : 177 Мбайт (11%)
    Заголовок : AC3 (Многоголосый) LostFilm
    Язык : Russian
    Default : Нет
    Forced : Нет
    Аудио #3
    Идентификатор : 4
    Формат : AC-3
    Формат/Информация : Audio Coding 3
    Расширение режима : CM (complete main)
    Параметр Endianness формата : Big
    Идентификатор кодека : A_AC3
    Продолжительность : 1 ч. 4 м.
    Вид битрейта : Постоянный
    Битрейт : 384 Кбит/сек
    Каналы : 6 каналов
    Расположение каналов : Front: L C R, Side: L R, LFE
    Частота : 48, 0 КГц
    Битовая глубина : 16 бит
    Метод сжатия : С потерями
    Размер потока : 177 Мбайт (11%)
    Заголовок : AC3 (Оригинал)
    Язык : English
    Default : Нет
    Forced : Нет
    Текст #1
    Идентификатор : 5
    Формат : UTF-8
    Идентификатор кодека : S_TEXT/UTF8
    Идентификатор кодека/Информация : UTF-8 Plain Text
    Заголовок : Русские
    Язык : Russian
    Default : Нет
    Forced : Нет
    Текст #2
    Идентификатор : 6
    Формат : UTF-8
    Идентификатор кодека : S_TEXT/UTF8
    Идентификатор кодека/Информация : UTF-8 Plain Text
    Заголовок : Английские
    Язык : English
    Default : Нет
    Forced : Нет
    01. Пилот/Pilot


    Скриншоты для ознакомления




    Бойтесь ходячих мертвецов/Fear the Walking Dead (2015) WEB-DLRip [H.264] (сезон 1, серии 1 из 6) AMC, LostFilm (обновляемая)
    загрузка...
    Рейтинг →
     (голосов: 1, оценка 3/5, голосовать можно 1 раз )

    Другие торренты по теме:

  • Бойтесь ходячих мертвецов / Fear the Walking Dead (2015) WEB-DLRip (сезон 1, серии 1 из 6()) NewStudio (обновляемая) скачать через торрент бесплатно
  • Бойтесь ходячих мертвецов / Fear the Walking Dead (2015) WEB-DL [H.264 / 1080p-LQ] (сезон 1, серия 1 из 6) (AMC) (обновляемая) скачать через торрент бесплатно
  • Бойтесь ходячих мертвецов / Fear the Walking Dead (2015) HDTVRip [H.264 / 720p-LQ] (сезон 1, серии 1 из 6) AMC (обновляемая) скачать через торрент бесплатно
  • Бойтесь ходячих мертвецов / Fear the Walking Dead (2015) HDTVRip (сезон 1, серии 1 из 6()) AMC (обновляемая) скачать через торрент бесплатно
  • Бойтесь ходячих мертвецов / Fear the Walking Dead (2015) WEB-DLRip (сезон 1, серии 1 из 6()) LostFilm (обновляемая) скачать через торрент бесплатно
  • Бойтесь ходячих мертвецов / Fear the Walking Dead (2015) WEB-DL [H.264 / 720p-LQ] (сезон 1, серия 1 из 6) (NewStudio) (обновляемая) скачать через торрент бесплатно
  • Бойтесь ходячих мертвецов / Fear the Walking Dead (2015) WEB-DL [H.264 / 1080p-LQ] (сезон 1, серия 1 из 6) (NewStudio) (обновляемая) скачать через торрент бесплатно
  • Бойтесь ходячих мертвецов / Fear the Walking Dead (2015) WEB-DLRip (сезон 1, серии 1 из 6()) BaibaKo (обновляемая) скачать через торрент бесплатно


    • Комментарии (0):

      Информация

      Информация

        Посетители, находящиеся в группе Гости, не могут оставлять комментарии в данной новости.

        ↓ Меню




        ↓ Опрос

        Вы добавили сайт в закладки?
        Да
        Нет


        Top 10 за месяц (Фильмы)