.
Авторизация | Регистрация
Хочешь лучшие торренты? Добавь свой email!
Добавить

Торрент скачать бесплатно

» » Не горюй (1968) DVB скачать через торрент бесплатно




    Не горюй (1968) DVB скачать через торрент бесплатно

    Опубликовал: Админ | Дата: 27-08-2015, 04:00 | Просмотров: 115

    Производство: СССР, Мосфильм, Экспериментальное творческое объединение, Грузия-фильм
    Жанр: Драма, Комедия
    Режиссер: Георгий Данелия

    Актеры
    Серго Закариадзе, Вахтанг Кикабидзе, Софико Чиаурели, Анастасия Вертинская, Лия Гудадзе, Верико Анджапаридзе, Сесилия Такаишвили, Ариадна Шенгелая, Георгий Кавтарадзе, Ипполит Хвичия, Карло Саканделидзе, Давид Абашидзе, Коте Даушвили, Евгений Леонов, Сергей Филиппов, Абессалом Лория, Леван Шамилов, Ия Нинидзе, Нана Канделаки, Баадур Цуладзе, Мераб Кокочашвили, Гия Бадридзе, Давид Кобахидзе, Фрунзик Мкртчян, Зураб Капианидзе, Александре Купрашвили

    Описание

    После окончания Петербургского университета, полный надежд и грандиозных планов, возвращается в родной городок молодой врач Бенжамен Глонти. Но жизнь, как и до его отъезда, течет своим чередом: растет семейство сестрицы Софико, усердно, с утра до вечера, переписывает бумаги ее муж Лука, время от времени спускаясь в погребок, чтобы опрокинуть рюмочку. И, по-прежнему слоняясь без дела, достает всех адвокат Додо. Бенжамен стал горевать по несостоявшейся жизни. И тогда, чтобы поправить дела брата, решила Софико женить его на дочери старого лекаря...

    Продолжительность: 01: 28: 58
    Качество видео: DVB
    Видео: MPEG 2, 720x576@768x576 (4: 3), 25.000 fps, 15.0 Mbps (0.513 bit/pixel)
    Аудио: MP2, 48.0 KHz, 2 ch, 256 Kbps, CBR
    Код:

    Видео
    Идентификатор : 224 (0xE0)
    Формат : MPEG Video
    Версия формата : Version 2
    Профиль формата : Main@Main
    Параметр BVOP формата : Да
    Параметр матрицы формата : Выборочная
    Параметр GOP формата : M=3, N=15
    Продолжительность : 1 ч. 28 м.
    Вид битрейта : Переменный
    Битрейт : 5323 Кбит/сек
    Максимальный битрейт : 15, 0 Мбит/сек
    Ширина : 720 пикселей
    Высота : 576 пикселей
    Соотношение сторон : 4:3
    Частота кадров : 25, 000 кадров/сек
    Стандарт вещания : PAL
    Цветовое пространство : YUV
    Субдискретизация насыщенности : 4:2:0
    Битовая глубина : 8 бит
    Тип развёртки : Чересстрочная
    Порядок развёртки : Верхнее поле первое
    Метод сжатия : С потерями
    Бит/(Пиксели*Кадры) : 0.513
    Размер потока : 3, 31 Гбайт (94%)
    Аудио
    Идентификатор : 192 (0xC0)
    Формат : MPEG Audio
    Версия формата : Version 1
    Профиль формата : Layer 2
    Продолжительность : 1 ч. 28 м.
    Вид битрейта : Постоянный
    Битрейт : 256 Кбит/сек
    Каналы : 2 канала
    Частота : 48, 0 КГц
    Метод сжатия : С потерями
    Размер потока : 163 Мбайт (4%)


    Скриншоты для ознакомления




    Не горюй (1968) DVB
    загрузка...
    Рейтинг →
     (голосов: 1, оценка 4/5, голосовать можно 1 раз )

    Другие торренты по теме:

  • Не горюй! (1968) DVDRip [H.264]
  • Мама не горюй (1997) DVDRip [H.264]


    • Комментарии (0):

      Информация

      Информация

        Посетители, находящиеся в группе Гости, не могут оставлять комментарии в данной новости.

        ↓ Меню




        ↓ Опрос

        Вы добавили сайт в закладки?
        Да
        Нет


        Top 10 за месяц (Фильмы)