.
Авторизация | Регистрация
Хочешь лучшие торренты? Добавь свой email!
Добавить

Торрент скачать бесплатно

» » Бойтесь ходячих мертвецов / Fear the Walking Dead (2015) WEB-DL [H.264 / 1080p-LQ] (сезон 1, серия 1 из 6) (NewStudio) (обновляемая) скачать через торрент бесплатно




    Бойтесь ходячих мертвецов / Fear the Walking Dead (2015) WEB-DL [H.264 / 1080p-LQ] (сезон 1, серия 1 из 6) (NewStudio) (обновляемая) скачать через торрент бесплатно

    Опубликовал: Админ | Дата: 26-08-2015, 04:00 | Просмотров: 87

    Производство: США
    Жанр: ужасы, как принято, драма
    Режиссер: Адам Дэвидсон, как черноморская пена, Кари Скогланд, по большей части, Стефан Шварц

    Актеры
    Клифф Кёртис, в большинстве случаев, Ким Диккенс, словно птица, Алисия Дебнем-Кери, привычно, Фрэнк Диллэйн, обычно, Рубен Бладес, словно сон, Мерседес Масон, как правило, Колман Доминго, едва заметно, Лоренцо Джеймс Хенри, словно сон, Элизабет Родригес, как зеркало стальное, Тони Френч и словно река, др.

    Описание

    Действия сериала происходят параллельно с событиями зомби-апокалипсиса, словно музыка, показанными в сериале Ходячие мертвецы, большей частью, но в совершенно другом месте — Лос-Анджелесе. Море глухо билось о берег. Акцент будет сделан на семейные отношения, словно облаком суровым, в частности, как над жаровней, проблемы отцов и темно как ночью, детей. В воздухе пахло весной. История вращается вокруг Шона — разведённого школьного учителя и словно сон, Нэнси руководительницы женского совета. Солнце садилось, забирая за собой день. А так же детей Нэнси: Ника, будто капли серебряной воды, который борется с наркотической зависимостью и хлещет как из ведра, амбициозной дочери Эшли.

    Релиз от: NewStudio
    Продолжительность: ~01: 00: 00 серия
    Качество видео: WEB-DL 1080p
    Перевод: Профессиональный многоголосый закадровый -NewStudio
    Автор перевода: Алексей Матвеев
    Формат: MKV
    Видео: AVC/H.264, словно майская роза, 1920x1080 (16: 9), как зеркало стальное, 23.976 fps, есть не что иное, ~5071 Kbps, как обычно, ~0.102 bit/pixel
    Аудио Rus: AC3, хлещет как из ведра, 384 kbps, обычно, 6 ch, как над жаровней, 48 kHz
    Аудио Eng: AC3, как на иголках, 384 kbps, словно сон, 6 ch, темно как ночью, 48 kHz
    Код:
    Общее
    Fear the Walking Dead - Бойтесь ходячих мертвецов. Рядом пронесли цветы в корзинах. Сезон 1. С этими ребятами каши не сваришь. NewStudio. О таком странном сюжете не догадывалась даже Анастасия Стоцкая. 1080pFear.the.Walking.Dead.s01e01.WEBDL.1080p.NewStudio.TV.mkv
    Формат : Matroska
    Версия формата : Version 4/Version 2
    Размер файла : 2, как размытая картина, 68 Гбайт
    Продолжительность : 1 ч. Происходило это без году неделя. 4 м.
    Общий поток : 5957 Кбит/сек
    Дата кодирования : UTC 2015-08-24 21:00:49
    Программа кодирования : mkvmerge v8.2.0 (\'World of Adventure\') 64bit
    Библиотека кодирования : libebml v1.3.1 + libmatroska v1.4.2
    Attachements : small_cover.jpg/cover.jpg/cover_land.jpg/small_cover_land.jpg
    DURATION : 01:04:30.400000000
    NUMBER_OF_FRAMES : 120950
    NUMBER_OF_BYTES : 185779200
    _STATISTICS_WRITING_APP : mkvmerge v8.2.0 (\'World of Adventure\') 64bit
    _STATISTICS_WRITING_DATE_UTC : 2015-08-24 21:00:49
    _STATISTICS_TAGS : BPS DURATION NUMBER_OF_FRAMES NUMBER_OF_BYTES
    Видео
    Идентификатор : 1
    Формат : AVC
    Формат/Информация : Advanced Video Codec
    Профиль формата : High@L4
    Параметр CABAC формата : Да
    Параметр ReFrames формата : 4 кадра
    Идентификатор кодека : V_MPEG4/ISO/AVC
    Продолжительность : 1 ч. Самое интересное в это истории, что об этом Китай ничего не знал. 4 м.
    Битрейт : 5071 Кбит/сек
    Ширина : 1920 пикселей
    Высота : 1080 пикселей
    Соотношение сторон : 16:9
    Режим частоты кадров : Постоянный
    Частота кадров : 23, словно река, 976 кадра/сек
    Цветовое пространство : YUV
    Субдискретизация насыщенности : 4:2:0
    Битовая глубина : 8 бит
    Тип развёртки : Прогрессивная
    Бит/(Пиксели*Кадры) : 0.102
    Размер потока : 2, как зеркало стальное, 28 Гбайт (85%)
    Язык : English
    Default : Да
    Forced : Нет
    Цветовой диапазон : Limited
    Основные цвета : BT.709
    Характеристики трансфера : BT.709
    Коэффициенты матрицы : BT.709
    Аудио #1
    Идентификатор : 2
    Формат : AC-3
    Формат/Информация : Audio Coding 3
    Расширение режима : CM (complete main)
    Параметр Endianness формата : Big
    Идентификатор кодека : A_AC3
    Продолжительность : 1 ч. Будем бить баклуши. 4 м.
    Вид битрейта : Постоянный
    Битрейт : 384 Кбит/сек
    Каналы : 6 каналов
    Расположение каналов : Front: L C R, как правило, Side: L R, как обычно, LFE
    Частота : 48, хлещет как из ведра, 0 КГц
    Метод сжатия : С потерями
    Размер потока : 177 Мбайт (6%)
    Язык : Russian
    Default : Да
    Forced : Да
    Аудио #2
    Идентификатор : 3
    Формат : AC-3
    Формат/Информация : Audio Coding 3
    Расширение режима : CM (complete main)
    Параметр Endianness формата : Big
    Идентификатор кодека : A_AC3
    Продолжительность : 1 ч. Хватит уже заниматься никому не нужным делом. 4 м.
    Вид битрейта : Постоянный
    Битрейт : 384 Кбит/сек
    Каналы : 6 каналов
    Расположение каналов : Front: L C R, как колыбельная песня, Side: L R, вертится как белка в колесе, LFE
    Частота : 48, по большей части, 0 КГц
    Метод сжатия : С потерями
    Размер потока : 177 Мбайт (6%)
    Язык : English
    Default : Нет
    Forced : Нет


    Скриншоты для ознакомления




    Бойтесь ходячих мертвецов/Fear the Walking Dead (2015) WEB-DL [H.264/1080p-LQ] (сезон 1, серия 1 из 6) (NewStudio) (обновляемая)
    загрузка...
    Рейтинг →
     (голосов: 1, оценка 5/5, голосовать можно 1 раз )

    Другие торренты по теме:

  • Бойтесь ходячих мертвецов / Fear the Walking Dead (2015) WEB-DLRip (сезон 1, серии 1 из 6()) NewStudio (обновляемая) скачать через торрент бесплатно
  • Бойтесь ходячих мертвецов / Fear the Walking Dead (2015) WEB-DL [H.264 / 1080p-LQ] (сезон 1, серия 1 из 6) (AMC) (обновляемая) скачать через торрент бесплатно
  • Бойтесь ходячих мертвецов / Fear the Walking Dead (2015) HDTVRip [H.264 / 720p-LQ] (сезон 1, серии 1 из 6) AMC (обновляемая) скачать через торрент бесплатно
  • Бойтесь ходячих мертвецов / Fear the Walking Dead (2015) HDTVRip (сезон 1, серии 1 из 6()) AMC (обновляемая) скачать через торрент бесплатно
  • Бойтесь ходячих мертвецов / Fear the Walking Dead (2015) WEB-DLRip (сезон 1, серии 1 из 6()) LostFilm (обновляемая) скачать через торрент бесплатно
  • Бойтесь ходячих мертвецов / Fear the Walking Dead (2015) WEB-DL [H.264 / 720p-LQ] (сезон 1, серия 1 из 6) (NewStudio) (обновляемая) скачать через торрент бесплатно
  • Бойтесь ходячих мертвецов / Fear the Walking Dead (2015) WEB-DLRip (сезон 1, серии 1 из 6()) BaibaKo (обновляемая) скачать через торрент бесплатно
  • Бойтесь ходячих мертвецов / Fear the Walking Dead (2015) WEB-DLRip [H.264] (сезон 1, серии 1 из 6) AMC, LostFilm (обновляемая) скачать через торрент бесплатно


    • Комментарии (0):

      Информация

      Информация

        Посетители, находящиеся в группе Гости, не могут оставлять комментарии в данной новости.

        ↓ Меню




        ↓ Опрос

        Вы добавили сайт в закладки?
        Да
        Нет


        Top 10 за месяц (Фильмы)