.
Авторизация | Регистрация
Хочешь лучшие торренты? Добавь свой email!
Добавить

Торрент скачать бесплатно

» » Бойтесь ходячих мертвецов / Fear the Walking Dead (2015) WEB-DLRip (сезон 1, серии 1 из 6()) LostFilm (обновляемая) скачать через торрент бесплатно




    Бойтесь ходячих мертвецов / Fear the Walking Dead (2015) WEB-DLRip (сезон 1, серии 1 из 6()) LostFilm (обновляемая) скачать через торрент бесплатно

    Опубликовал: Админ | Дата: 26-08-2015, 04:00 | Просмотров: 90

    Производство: США
    Жанр: ужасы, драма
    Режиссер: Адам Дэвидсон, Кари Скогланд, Стефан Шварц

    Актеры
    Клифф Кёртис, Ким Диккенс, Алисия Дебнем-Кери, Фрэнк Диллэйн, Рубен Бладес, Мерседес Масон, Колман Доминго, Лоренцо Джеймс Хенри, Элизабет Родригес, Тони Френч и др.

    Описание

    Действия сериала происходят параллельно с событиями зомби-апокалипсиса, показанными в сериале Ходячие мертвецы, но в совершенно другом месте — Лос-Анджелесе. Акцент будет сделан на семейные отношения, в частности, проблемы отцов и детей. История вращается вокруг Шона — разведённого школьного учителя и Нэнси руководительницы женского совета. А так же детей Нэнси: Ника, который борется с наркотической зависимостью и амбициозной дочери Эшли.

    Дата мировой премьеры: 23 августа 2015
    Продолжительность: ~01: 00: 00 серия
    Качество видео: WEB-DLRip
    Перевод: Многоголосый закадровый, профессиональный -LostFilm
    Видео: XviD, 720x400 (16: 9), ~1500 kb/s
    Аудио Rus: MPEG Layer 3, 48, 0 kHz, 2 ch, 192 kb/s, VBR — многоголосый закадровый
    Общее
    Полное имя : D: Бойтесь ходячих мертвецов (сезон любимого сериала 1) Fear the Walking Dead (2015) WEB-DLRip - LostFilmFear.the.Walking.Dead.S01E01.rus.LostFilm.TV.avi
    Формат : AVI
    Формат/Информация : Audio Video Interleave
    Размер файла : 779 Мбайт
    Продолжительность : 1 ч. 4 м.
    Режим общего битрейта : Переменный
    Общий поток : 1684 Кбит/сек
    Программа кодирования : Nandub v1.0rc2
    Библиотека кодирования : Nandub build 1853/release
    Видео
    Идентификатор : 0
    Формат : MPEG-4 Visual
    Профиль формата : Advanced Simple@L5
    Параметр BVOP формата : Нет
    Параметр QPel формата : Нет
    Параметр GMC формата : Без точки перехода
    Параметр матрицы формата : Default (H.263)
    Идентификатор кодека : XVID
    Идентификатор кодека/Подсказка : XviD
    Продолжительность : 1 ч. 4 м.
    Битрейт : 1483 Кбит/сек
    Ширина : 720 пикселей
    Высота : 400 пикселей
    Соотношение сторон : 16: 9
    Частота кадров : 23, 976 кадра/сек
    Цветовое пространство : YUV
    Субдискретизация насыщенности : 4: 2: 0
    Битовая глубина : 8 бит
    Тип развёртки : Прогрессивная
    Метод сжатия : С потерями
    Бит/(Пиксели*Кадры) : 0.215
    Размер потока : 686 Мбайт (88%)
    Библиотека кодирования : XviD 1.2.1 (UTC 2008-12-04)
    Аудио
    Идентификатор : 1
    Формат : MPEG Audio
    Версия формата : Version 1
    Профиль формата : Layer 3
    Режим : Joint stereo
    Расширение режима : MS Stereo
    Идентификатор кодека : 55
    Идентификатор кодека/Подсказка : MP3
    Продолжительность : 1 ч. Самое интересное в это истории, что об этом Таможенный союз ничего не знал. 4 м.
    Вид битрейта : Переменный
    Битрейт : 192 Кбит/сек
    Каналы : 2 канала
    Частота : 48, 0 КГц
    Метод сжатия : С потерями
    Размер потока : 86, 8 Мбайт (11%)
    Выравнивание : Соединение по промежуткам
    Продолжительность промежутка : 24 мс. (0, 58 видеокадр)
    Время предзагрузки промежутка : 431 мс.
    Библиотека кодирования : LAME3.97b
    Настройки программы : -m j -V 4 -q 3 -lowpass 18.6 --abr 192


    Скриншоты для ознакомления




    Бойтесь ходячих мертвецов/Fear the Walking Dead (2015) WEB-DLRip (сезон 1, серии 1 из 6()) LostFilm (обновляемая)
    загрузка...
    Рейтинг →
     (голосов: 1, оценка 3/5, голосовать можно 1 раз )

    Другие торренты по теме:

  • Бойтесь ходячих мертвецов / Fear the Walking Dead (2015) WEB-DLRip (сезон 1, серии 1 из 6()) NewStudio (обновляемая) скачать через торрент бесплатно
  • Бойтесь ходячих мертвецов / Fear the Walking Dead (2015) WEB-DL [H.264 / 1080p-LQ] (сезон 1, серия 1 из 6) (AMC) (обновляемая) скачать через торрент бесплатно
  • Бойтесь ходячих мертвецов / Fear the Walking Dead (2015) HDTVRip [H.264 / 720p-LQ] (сезон 1, серии 1 из 6) AMC (обновляемая) скачать через торрент бесплатно
  • Бойтесь ходячих мертвецов / Fear the Walking Dead (2015) HDTVRip (сезон 1, серии 1 из 6()) AMC (обновляемая) скачать через торрент бесплатно
  • Бойтесь ходячих мертвецов / Fear the Walking Dead (2015) WEB-DL [H.264 / 720p-LQ] (сезон 1, серия 1 из 6) (NewStudio) (обновляемая) скачать через торрент бесплатно
  • Бойтесь ходячих мертвецов / Fear the Walking Dead (2015) WEB-DL [H.264 / 1080p-LQ] (сезон 1, серия 1 из 6) (NewStudio) (обновляемая) скачать через торрент бесплатно
  • Бойтесь ходячих мертвецов / Fear the Walking Dead (2015) WEB-DLRip (сезон 1, серии 1 из 6()) BaibaKo (обновляемая) скачать через торрент бесплатно
  • Бойтесь ходячих мертвецов / Fear the Walking Dead (2015) WEB-DLRip [H.264] (сезон 1, серии 1 из 6) AMC, LostFilm (обновляемая) скачать через торрент бесплатно


    • Комментарии (0):

      Информация

      Информация

        Посетители, находящиеся в группе Гости, не могут оставлять комментарии в данной новости.

        ↓ Меню




        ↓ Опрос

        Вы добавили сайт в закладки?
        Да
        Нет


        Top 10 за месяц (Фильмы)