.
Авторизация | Регистрация
Хочешь лучшие торренты? Добавь свой email!
Добавить

Торрент скачать бесплатно

» » Бойтесь ходячих мертвецов / Fear the Walking Dead (2015) HDTVRip [H.264 / 720p-LQ] (сезон 1, серии 1 из 6) AMC (обновляемая) скачать через торрент бесплатно




    Бойтесь ходячих мертвецов / Fear the Walking Dead (2015) HDTVRip [H.264 / 720p-LQ] (сезон 1, серии 1 из 6) AMC (обновляемая) скачать через торрент бесплатно

    Опубликовал: Админ | Дата: 25-08-2015, 04:00 | Просмотров: 192

    Производство: США
    Жанр: ужасы, драма
    Режиссер: Адам Дэвидсон, Кари Скогланд, Стефан Шварц

    Актеры
    Клифф Кёртис, Ким Диккенс, Алисия Дебнем-Кери, Фрэнк Диллэйн, Рубен Бладес, Мерседес Масон, Колман Доминго, Лоренцо Джеймс Хенри, Элизабет Родригес, Тони Френч и др.

    Описание

    Действия сериала происходят параллельно с событиями зомби-апокалипсиса, показанными в сериале Ходячие мертвецы, но в совершенно другом месте — Лос-Анджелесе. Акцент будет сделан на семейные отношения, в частности, проблемы отцов и детей. История вращается вокруг Шона — разведённого школьного учителя и Нэнси руководительницы женского совета. А так же детей Нэнси: Ника, который борется с наркотической зависимостью и амбициозной дочери Эшли.

    Дата мировой премьеры: 23 августа 2015
    Продолжительность: ~01: 00: 00 серия
    Качество видео: HDTVRip 720p
    Перевод: Многоголосый закадровый, профессиональный -AMC
    Видео: AVC, 1280x720 (16: 9), ~3225 Kbps
    Аудио Rus: AC-3, 48.0 KHz, 2 ch, 192 Kbps — многоголосый закадровый
    Аудио Eng: AC-3, 48.0 KHz, 6 ch, 384 Kbps — оригинал
    General
    Complete name : F: СериалраздачаFear.The.Walking.Dead.S01.720p.HDTVFear.The.Walking.Dead.S01E01.720p.HDTV.Rus.Eng.CasStudio.mkv
    Format : Matroska
    File size : 1.73 GiB
    Duration : 1h 3mn
    Overall bit rate : 3 878 Kbps
    Encoded date : UTC 2015-08-24 03: 31: 01
    Writing application : mkvmerge v8.0.0 (\'Til The Day That I Die\') 64bit
    Writing library : libebml v1.3.1 + libmatroska v1.4.2
    Video
    ID : 1
    Format : AVC
    Format/Info : Advanced Video Codec
    Format profile : High@L4.1
    Format settings, CABAC : Yes
    Format settings, ReFrames : 5 frames
    Muxing mode : Container profile=Unknown@4.1
    Codec ID : V_MPEG4/ISO/AVC
    Duration : 1h 3mn
    Bit rate : 3 225 Kbps
    Width : 1 280 pixels
    Height : 720 pixels
    Display aspect ratio : 16: 9
    Frame rate : 23.976 fps
    Color space : YUV
    Chroma subsampling : 4: 2: 0
    Bit depth : 8 bits
    Scan type : Progressive
    Bits/(Pixel*Frame) : 0.146
    Stream size : 1.44 GiB (83%)
    Writing library : x264 core 148 r2579 73ae2d1
    Encoding settings : cabac=1/ref=5/deblock=1: 0: 0/analyse=0x3: 0x113/me=umh/subme=8/psy=1/psy_rd=1.00: 0.00/mixed_ref=1/me_range=16/chroma_me=1/trellis=1/8x8dct=1/cqm=0/deadzone=21, 11/fast_pskip=1/chroma_qp_offset=-2/threads=22/lookahead_threads=3/sliced_threads=0/nr=0/decimate=1/interlaced=0/bluray_compat=0/constrained_intra=0/bframes=3/b_pyramid=2/b_adapt=2/b_bias=0/direct=3/weightb=1/open_gop=0/weightp=2/keyint=250/keyint_min=23/scenecut=40/intra_refresh=0/rc_lookahead=50/rc=crf/mbtree=1/crf=18.0/qcomp=0.60/qpmin=0/qpmax=69/qpstep=4/ip_ratio=1.40/aq=1: 1.00
    Language : English
    Matrix coefficients : BT.709-5, BT.1361, IEC 61966-2-4 709, SMPTE RP177
    Audio #1
    ID : 2
    Format : AC-3
    Format/Info : Audio Coding 3
    Mode extension : CM (complete main)
    Codec ID : A_AC3
    Duration : 1h 3mn
    Bit rate mode : Constant
    Bit rate : 192 Kbps
    Channel(s) : 2 channels
    Channel positions : Front: L R
    Sampling rate : 48.0 KHz
    Bit depth : 16 bits
    Stream size : 87.5 MiB (5%)
    Language : Russian
    Audio #2
    ID : 3
    Format : AC-3
    Format/Info : Audio Coding 3
    Mode extension : CM (complete main)
    Codec ID : A_AC3
    Duration : 1h 3mn
    Bit rate mode : Constant
    Bit rate : 384 Kbps
    Channel(s) : 6 channels
    Channel positions : Front: L C R, Side: L R, LFE
    Sampling rate : 48.0 KHz
    Bit depth : 16 bits
    Stream size : 175 MiB (10%)
    Language : English


    Скриншоты для ознакомления




    Бойтесь ходячих мертвецов/Fear the Walking Dead (2015) HDTVRip [H.264/720p-LQ] (сезон 1, серии 1 из 6) AMC (обновляемая)
    загрузка...
    Рейтинг →
     (голосов: 1, оценка 3/5, голосовать можно 1 раз )

    Другие торренты по теме:

  • Бойтесь ходячих мертвецов / Fear the Walking Dead (2015) WEB-DLRip (сезон 1, серии 1 из 6()) NewStudio (обновляемая) скачать через торрент бесплатно
  • Бойтесь ходячих мертвецов / Fear the Walking Dead (2015) WEB-DL [H.264 / 1080p-LQ] (сезон 1, серия 1 из 6) (AMC) (обновляемая) скачать через торрент бесплатно
  • Бойтесь ходячих мертвецов / Fear the Walking Dead (2015) HDTVRip (сезон 1, серии 1 из 6()) AMC (обновляемая) скачать через торрент бесплатно
  • Бойтесь ходячих мертвецов / Fear the Walking Dead (2015) WEB-DLRip (сезон 1, серии 1 из 6()) LostFilm (обновляемая) скачать через торрент бесплатно
  • Бойтесь ходячих мертвецов / Fear the Walking Dead (2015) WEB-DL [H.264 / 720p-LQ] (сезон 1, серия 1 из 6) (NewStudio) (обновляемая) скачать через торрент бесплатно
  • Бойтесь ходячих мертвецов / Fear the Walking Dead (2015) WEB-DL [H.264 / 1080p-LQ] (сезон 1, серия 1 из 6) (NewStudio) (обновляемая) скачать через торрент бесплатно
  • Бойтесь ходячих мертвецов / Fear the Walking Dead (2015) WEB-DLRip (сезон 1, серии 1 из 6()) BaibaKo (обновляемая) скачать через торрент бесплатно
  • Бойтесь ходячих мертвецов / Fear the Walking Dead (2015) WEB-DLRip [H.264] (сезон 1, серии 1 из 6) AMC, LostFilm (обновляемая) скачать через торрент бесплатно


    • Комментарии (0):

      Информация

      Информация

        Посетители, находящиеся в группе Гости, не могут оставлять комментарии в данной новости.

        ↓ Меню




        ↓ Опрос

        Вы добавили сайт в закладки?
        Да
        Нет


        Top 10 за месяц (Фильмы)