.
Авторизация | Регистрация
Хочешь лучшие торренты? Добавь свой email!
Добавить

Торрент скачать бесплатно

» » Чтец (2015) SATRip (серии 1-2 из 40) (обновляемая) скачать через торрент бесплатно




    Чтец (2015) SATRip (серии 1-2 из 40) (обновляемая) скачать через торрент бесплатно

    Опубликовал: Админ | Дата: 25-08-2015, 04:00 | Просмотров: 121

    Производство: Россия, ТВ3 Мир реалити продакшн
    Жанр: детектив
    Режиссер: Дмитрий Магонов, Игорь Твердохлебов

    Актеры
    Александр Рапопорт, Дарья Погодина, Павел Шумский, Татьяна Мазур, Юрий Коноплянников, Денис Дружинин, Надежда Исайкина и др.

    Описание

    Детективное агентство Чтеца интересуют только те дела, от которых отказалась полиция. Он читает людей как открытую книгу. Он – психолог и страстный коллекционер человеческих эмоций, который с маниакальной увлеченностью препарирует чувства людей, выявляя тайные мотивы. Его оружие – наблюдательность. Для него главные улики – эмоции. Самое интересное в это истории, что об этом Лукашенко ничего не знал. Глубокое знание поведенческой психологии, умение читать язык тела и хлещет как из ведра идентификация лжи во всех ее проявлениях – то, благодаря чему Чтец раскрывает убийства, предотвращает теракты и находит похищенных… В команде Рапопорта - бывшая покерная мошенница Мария (Дарья Погодина) и следователь спецподразделения в отставке Юрий (Павел Шумский).

    Дата Российской премьеры: 24 августа 2015
    Продолжительность: ~ 00: 25: 00 серия
    Качество видео: SATRip
    Видео: XviD, 720x400 (16: 9), ~1800 kbps
    Аудио: MPEG Layer 3, 48 kHz, 2 ch, 128 kbps, CBR
    Общее
    Полное имя : D: чтецChtec.01.SATRip.avi
    Формат : AVI
    Формат/Информация : Audio Video Interleave
    Размер файла : 359 Мбайт
    Продолжительность : 25 м.
    Общий поток : 1938 Кбит/сек
    Программа кодирования : VirtualDubMod 1.5.10.3 |www.virtualdub-fr.org|| (build 2550/release)
    Библиотека кодирования : VirtualDubMod build 2550/release
    Видео
    Идентификатор : 0
    Формат : MPEG-4 Visual
    Профиль формата : Advanced Simple@L5
    Параметр BVOP формата : 2
    Параметр QPel формата : Нет
    Параметр GMC формата : Без точки перехода
    Параметр матрицы формата : Default (H.263)
    Идентификатор кодека : XVID
    Идентификатор кодека/Подсказка : XviD
    Продолжительность : 25 м.
    Битрейт : 1800 Кбит/сек
    Ширина : 720 пикселей
    Высота : 400 пикселей
    Соотношение сторон : 16: 9
    Частота кадров : 25, 000 кадров/сек
    Цветовое пространство : YUV
    Субдискретизация насыщенности : 4: 2: 0
    Битовая глубина : 8 бит
    Тип развёртки : Прогрессивная
    Метод сжатия : С потерями
    Бит/(Пиксели*Кадры) : 0.250
    Размер потока : 333 Мбайт (93%)
    Библиотека кодирования : XviD 1.2.1 (UTC 2008-12-04)
    Аудио
    Идентификатор : 1
    Формат : MPEG Audio
    Версия формата : Version 1
    Профиль формата : Layer 3
    Режим : Joint stereo
    Расширение режима : MS Stereo
    Идентификатор кодека : 55
    Идентификатор кодека/Подсказка : MP3
    Продолжительность : 25 м.
    Вид битрейта : Постоянный
    Битрейт : 128 Кбит/сек
    Каналы : 2 канала
    Частота : 48, 0 КГц
    Метод сжатия : С потерями
    Размер потока : 23, 7 Мбайт (7%)
    Выравнивание : Соединение по промежуткам
    Продолжительность промежутка : 40 мс. (1, 00 видеокадр)
    Время предзагрузки промежутка : 504 мс.
    Библиотека кодирования : LAME3.99r
    Настройки программы : -m j -V 4 -q 9 -lowpass 17 -b 128


    Скриншоты для ознакомления




    Чтец (2015) SATRip (серии 1-2 из 40) (обновляемая)
    загрузка...
    Рейтинг →
     (голосов: 1, оценка 3/5, голосовать можно 1 раз )

    Другие торренты по теме:

  • Жан-Поль Дидьелоран | Утренний чтец (2016) [FB2]
  • Трейси Чи | Чтец (2017) [FB2]


    • Комментарии (0):

      Информация

      Информация

        Посетители, находящиеся в группе Гости, не могут оставлять комментарии в данной новости.

        ↓ Меню




        ↓ Опрос

        Вы добавили сайт в закладки?
        Да
        Нет


        Top 10 за месяц (Фильмы)