.
Авторизация | Регистрация
Хочешь лучшие торренты? Добавь свой email!
Добавить

Торрент скачать бесплатно

» » Назад в СССР (2010) DVD9 (4 серии из 4) скачать через торрент бесплатно




    Назад в СССР (2010) DVD9 (4 серии из 4) скачать через торрент бесплатно

    Опубликовал: Админ | Дата: 25-08-2015, 04:00 | Просмотров: 127

    Производство: Россия/Кинокомпания Магнум
    Жанр: Мелодрама
    Режиссер: Валерий Рожнов

    Актеры
    Марат Башаров, Карина Андоленко, Евгений Миллер, Владимир Качан, Александр Макогон, Кристина Бабушкина, Сергей Баталов, Анатолий Узденский, Поля Полякова

    Описание

    Антон - преуспевающий бизнесмен, переживающий кризис среднего возраста. Он не чувствует себя счастливым, имея все, что он мог бы пожелать. Он много выпивает, и по совету близкого друга, начинает посещать общество анонимных алкоголиков. Там он знакомится с человеком, называющим себя Сталкером, который предлагает приключение и ощущения, которых он никогда не испытывал. АНТОН соглашается и очень скоро понимает, что оказался в 1975 году.

    Возраст: 16+ (зрителям, достигшим 16 лет. )
    Продолжительность: 4 серии по ~ 00: 48: 00
    Качество видео: DVD9
    Субтитры: нет
    Меню: есть
    Дополнительно: Бонусы: анонсы DVD
    Видео: MPEG-2, 720x576@768x576, ~4997 kbps
    Аудио: AC3, 2 ch, 224 kbps
    Код:

    Общее
    Полное имя : Назад_в_СССРVIDEO_TSVTS_14_1.VOB
    Формат : MPEG-PS
    Размер файла : 1024 Мбайт
    Продолжительность : 26 м.
    Режим общего битрейта : Переменный
    Общий поток : 5327 Кбит/сек
    Видео
    Идентификатор : 224 (0xE0)
    Формат : MPEG Video
    Версия формата : Version 2
    Профиль формата : Main@Main
    Параметр BVOP формата : Да
    Параметр матрицы формата : По умолчанию
    Параметр GOP формата : M=3, N=12
    Продолжительность : 26 м.
    Вид битрейта : Переменный
    Битрейт : 4997 Кбит/сек
    Максимальный битрейт : 7500 Кбит/сек
    Ширина : 720 пикселей
    Высота : 576 пикселей
    Соотношение сторон : 4:3
    Частота кадров : 25, 000 кадров/сек
    Стандарт вещания : PAL
    Цветовое пространство : YUV
    Субдискретизация насыщенности : 4:2:0
    Битовая глубина : 8 бит
    Тип развёртки : Прогрессивная
    Метод сжатия : С потерями
    Бит/(Пиксели*Кадры) : 0.482
    Размер потока : 961 Мбайт (94%)
    Аудио
    Идентификатор : 189 (0xBD)-128 (0x80)
    Формат : AC-3
    Формат/Информация : Audio Coding 3
    Расширение режима : CM (complete main)
    Параметр Endianness формата : Big
    Режим смешивания : DVD-Video
    Продолжительность : 26 м.
    Вид битрейта : Постоянный
    Битрейт : 224 Кбит/сек
    Каналы : 2 канала
    Расположение каналов : Front: L R
    Частота : 48, 0 КГц
    Битовая глубина : 16 бит
    Метод сжатия : С потерями
    Размер потока : 43, 0 Мбайт (4%)
    Меню
    Код:

    Title: Назад_в_СССР
    Size: 7.88 Gb ( 8 265 850, 00 KBytes ) - DVD-9
    Enabled regions: 1, 2, 3, 4, 5, 6, 7, 8
    VTS_01 :
    Play Length: 00:00:15
    Video: PAL 4:3 (720x576) VBR
    Audio:
    Not specified (Dolby AC3, 2 ch)
    VTS_02 :
    Play Length: 00:00:08
    Video: PAL 16:9 (720x576) VBR, Auto Letterboxed
    Audio:
    Not specified, AC3, 2/0 (L, R) ch, 192 kbps, Delay 0 mSec
    VTS_03 :
    Play Length: 00:02:08
    Video: PAL 16:9 (720x576) VBR, Auto Letterboxed
    Audio:
    Not specified (Dolby AC3, 2 ch)
    VTS_04 :
    Play Length: 00:01:47
    Video: PAL 16:9 (720x576) VBR, Auto Letterboxed
    Audio:
    Not specified (Dolby AC3, 2 ch)
    VTS_05 :
    Play Length: 00:01:12
    Video: PAL 16:9 (720x576) VBR, Auto Letterboxed
    Audio:
    Not specified, LPCM, Delay = 0 mSec
    VTS_06 :
    Play Length: 00:02:30
    Video: PAL 16:9 (720x576) VBR, Auto Letterboxed
    Audio:
    Not specified (Dolby AC3, 2 ch)
    VTS_07 :
    Play Length: 00:02:03
    Video: PAL 16:9 (720x576) VBR, Auto Letterboxed
    Audio:
    Not specified, AC3, 2/0 (L, R) ch, 192 kbps, Delay 0 mSec
    VTS_08 :
    Play Length: 00:01:55
    Video: PAL 16:9 (720x576) VBR, Auto Letterboxed
    Audio:
    Not specified (Dolby AC3, 2 ch)
    VTS_09 :
    Play Length: 00:02:34
    Video: PAL 16:9 (720x576) VBR, Auto Letterboxed
    Audio:
    Not specified, AC3, 2/0 (L, R) ch, 192 kbps, Delay 0 mSec
    VTS_10 :
    Play Length: 00:02:27
    Video: PAL 16:9 (720x576) VBR, Auto Letterboxed
    Audio:
    Not specified (Dolby AC3, 2 ch)
    VTS_11 :
    Play Length: 00:49:36
    Video: PAL 4:3 (720x576) VBR
    Audio:
    Not specified (Dolby AC3, 2 ch)
    VTS_12 :
    Play Length: 00:47:44
    Video: PAL 4:3 (720x576) VBR
    Audio:
    Not specified, AC3, 2/0 (L, R) ch, 224 kbps, Delay 0 mSec
    VTS_13 :
    Play Length: 00:47:38
    Video: PAL 4:3 (720x576) VBR
    Audio:
    Not specified, AC3, 2/0 (L, R) ch, 224 kbps, Delay 0 mSec
    VTS_14 :
    Play Length: 00:47:25
    Video: PAL 4:3 (720x576) VBR
    Audio:
    Not specified, AC3, 2/0 (L, R) ch, 224 kbps, Delay 0 mSec


    Скриншоты для ознакомления




    Назад в СССР (2010) DVD9 (4 серии из 4)
    загрузка...
    Рейтинг →
     (голосов: 1, оценка 4/5, голосовать можно 1 раз )

    Другие торренты по теме:

  • Снова В Школу / Назад В Школу / Back To School (1986) BDRip [h.264] [AVO] скачать через торрент бесплатно
  • Назад в школу, с Космической Академией / Back to School with Space Academy (1977, 2006) TVRip
  • Назад в будущее: Трилогия / Back to the Future: Trilogy (1985,1989,1990) BDRip [720p]
  • Назад в школу 1.0 [Ru] скачать через торрент бесплатно
  • Назад в будущее: Трилогия / Back to the Future: Trilogy (1985,1989,1990) HDRip [H.264] [MP4|960х528] скачать через торрент бесплатно
  • Михаил Задорнов. Неформат 77. Рейтинг Путина, Валдайский клуб, назад в будущее (2015.10.23) WEB-DLRip [H.264 / 720p-LQ] скачать через торрент бесплатно
  • Михаил Задорнов. Неформат 77. Рейтинг Путина, Валдайский клуб, назад в будущее (2015.10.23) WEBRip скачать через торрент бесплатно
  • Назад в будущее: Трилогия / Back to the Future: Trilogy (1985, 1989, 1990) BDRip [H.264 / 720p-LQ] скачать через торрент бесплатно


    • Комментарии (0):

      Информация

      Информация

        Посетители, находящиеся в группе Гости, не могут оставлять комментарии в данной новости.

        ↓ Меню




        ↓ Опрос

        Вы добавили сайт в закладки?
        Да
        Нет


        Top 10 за месяц (Фильмы)