.
Авторизация | Регистрация
Хочешь лучшие торренты? Добавь свой email!
Добавить

Торрент скачать бесплатно

» » Хихикающий доктор / Dr. Giggles (1992) WEB-DL [H.264 / 720p-LQ] [AVO] скачать через торрент бесплатно




    Хихикающий доктор / Dr. Giggles (1992) WEB-DL [H.264 / 720p-LQ] [AVO] скачать через торрент бесплатно

    Опубликовал: Админ | Дата: 25-08-2015, 04:00 | Просмотров: 154

    Производство: США, Япония, Dark Horse Entertainment, JVC Entertainment, Largo Entertainment
    Жанр: Триллер, Ужасы
    Режиссер: Мэнни Кото

    Актеры
    Ларри Дрэйк, Холли Мэри Комбс, Клифф Де Янг, Гленн Куинн, Кит Даймонд, Ричард Брэдфорд, Мишель Джонсон, Джон Виккери, Нэнси Фиш, Сара Мелсон, Зои Триллинг, Дэрин Химс, Дебора Таккер, Даг Э. Даг, Денис Барнс, Джошуа Нилсен, Уильям Дэннис Хант, Николас Мастандреа, Уильям Эрл Рэй, Дэнни Перкин, Питер Даусон, Марио ДеПрайст, Марк С. Винсент, Бритт Магнусон, Русс Фаст, Трой Баррон, Марианн Доэрти, Дж.В. Кроуфорд, Хезер Уэйкхаус

    Описание

    Главный герой - слабоумный, вечно хихикающий врачеватель во втором поколении. Насмотревшись на то, как папа оперирует больных, сынок еще с детства принялся исследовать внутренности своих мягких игрушек с помощью скальпеля. Повзрослев и подучившись, а также посидев немного в психиатрической лечебнице, откуда сбегает и приезжает в свой родной город, он продолжает опыты на людях, что приносит ему глубокое удовлетворение. И теперь профессия врача-хирурга позволяет ему использовать во время операции весь арсенал хирургических инструментов, заканчивая её роковой для многих фразой – мы, врачи, лечим, мы же и убиваем...

    Продолжительность: 01: 34: 57
    Качество видео: WEB-DL
    Перевод: Авторский (одноголосый, закадровый) х3
    Язык субтитров: Английский
    Вид субтитров: Вшитые отключаемые
    Видео: AVC, 1280x720 (16: 9), 23.976 fps, 4 005 Kbps (0.181 bit/pixel)
    Аудио #1: AC-3, 48.0 KHz, 2 ch, 192 Kbps, CBR (Russian) - А.Гаврилов
    Аудио #2: AC-3, 48.0 KHz, 2 ch, 192 Kbps, CBR (Russian) - Л.Володарский
    Аудио #3: AC-3, 48.0 KHz, 2 ch, 192 Kbps, CBR (Russian) - Ю.Живов
    Код:

    Формат : Matroska
    Версия формата : Version 2
    Размер файла : 3, 10 Гбайт
    Продолжительность : 1 ч. 34 м.
    Общий поток : 4674 Кбит/сек
    Дата кодирования : UTC 2015-08-24 01:39:11
    Программа кодирования : mkvmerge v5.3.0 (\'I could have Danced\') built on Feb 9 2012 10:38:07
    Библиотека кодирования : libebml v1.2.3 + libmatroska v1.3.0
    Attachment : Yes
    Видео
    Идентификатор : 1
    Формат : AVC
    Формат/Информация : Advanced Video Codec
    Профиль формата :High@L3.1
    Параметр CABAC формата : Нет
    Параметр ReFrames формата : 2 кадра
    Параметр GOP формата : N=1
    Идентификатор кодека : V_MPEG4/ISO/AVC
    Продолжительность : 1 ч. 34 м.
    Битрейт : 4005 Кбит/сек
    Ширина : 1280 пикселей
    Высота : 720 пикселей
    Соотношение сторон : 16:9
    Режим частоты кадров : Постоянный
    Частота кадров : 23, 976 кадра/сек
    Цветовое пространство : YUV
    Субдискретизация насыщенности : 4:2:0
    Битовая глубина : 8 бит
    Тип развёртки : Прогрессивная
    Бит/(Пиксели*Кадры) : 0.181
    Размер потока : 2, 66 Гбайт (86%)
    Заголовок : Dr.Giggles.1992.720p.WEB-DL
    Язык : English
    Default : Да
    Forced : Нет
    Основные цвета : BT.709
    Характеристики трансфера : BT.709
    Коэффициенты матрицы : BT.709
    Аудио #1
    Идентификатор : 2
    Формат : AC-3
    Формат/Информация : Audio Coding 3
    Расширение режима : CM (complete main)
    Параметр Endianness формата : Big
    Идентификатор кодека : A_AC3
    Продолжительность : 1 ч. 34 м.
    Вид битрейта : Постоянный
    Битрейт : 192 Кбит/сек
    Каналы : 2 канала
    Расположение каналов : Front: L R
    Частота : 48, 0 КГц
    Битовая глубина : 16 бит
    Метод сжатия : С потерями
    Задержка видео : 16 с.
    Размер потока : 130 Мбайт (4%)
    Заголовок : Гаврилов
    Язык : Russian
    Default : Да
    Forced : Нет
    Аудио #2
    Идентификатор : 3
    Формат : AC-3
    Формат/Информация : Audio Coding 3
    Расширение режима : CM (complete main)
    Параметр Endianness формата : Big
    Идентификатор кодека : A_AC3
    Продолжительность : 1 ч. 34 м.
    Вид битрейта : Постоянный
    Битрейт : 192 Кбит/сек
    Каналы : 2 канала
    Расположение каналов : Front: L R
    Частота : 48, 0 КГц
    Битовая глубина : 16 бит
    Метод сжатия : С потерями
    Задержка видео : 16 с.
    Размер потока : 130 Мбайт (4%)
    Заголовок : Володарский
    Язык : Russian
    Default : Нет
    Forced : Нет
    Аудио #3
    Идентификатор : 4
    Формат : AC-3
    Формат/Информация : Audio Coding 3
    Расширение режима : CM (complete main)
    Параметр Endianness формата : Big
    Идентификатор кодека : A_AC3
    Продолжительность : 1 ч. 34 м.
    Вид битрейта : Постоянный
    Битрейт : 192 Кбит/сек
    Каналы : 2 канала
    Расположение каналов : Front: L R
    Частота : 48, 0 КГц
    Битовая глубина : 16 бит
    Метод сжатия : С потерями
    Задержка видео : 16 с.
    Размер потока : 130 Мбайт (4%)
    Заголовок : Живов
    Язык : Russian
    Default : Нет
    Forced : Нет
    Текст
    Идентификатор : 5
    Формат : UTF-8
    Идентификатор кодека : S_TEXT/UTF8
    Идентификатор кодека/Информация : UTF-8 Plain Text
    Язык : English
    Default : Да
    Forced : Нет
    Меню
    00:00:00.000 : en:Chapter 1
    00:09:19.000 : en:Chapter 2
    00:20:35.000 : en:Chapter 3
    00:31:12.000 : en:Chapter 4
    00:39:02.000 : en:Chapter 5
    00:48:08.000 : en:Chapter 6
    00:59:51.000 : en:Chapter 7
    01:10:15.000 : en:Chapter 8
    01:19:37.000 : en:Chapter 9
    01:31:53.000 : en:Chapter 10

    Скриншоты для ознакомления



    Время раздачи: до 5-ти скачавших

    Хихикающий доктор/Dr. Giggles (1992) WEB-DL [H.264/720p-LQ] [AVO]
    загрузка...
    Рейтинг →
     (голосов: 1, оценка 3/5, голосовать можно 1 раз )

    Другие торренты по теме:

  • Хихикающий доктор / Dr. Giggles (1992) BDRip [H.264] [AVO]


    • Комментарии (0):

      Информация

      Информация

        Посетители, находящиеся в группе Гости, не могут оставлять комментарии в данной новости.

        ↓ Меню




        ↓ Опрос

        Вы добавили сайт в закладки?
        Да
        Нет


        Top 10 за месяц (Фильмы)