.
Авторизация | Регистрация

Торрент скачать бесплатно

» » Хихикающий доктор / Dr. Giggles (1992) WEB-DL [H.264 / 720p-LQ] [AVO] скачать через торрент бесплатно




    Хихикающий доктор / Dr. Giggles (1992) WEB-DL [H.264 / 720p-LQ] [AVO] скачать через торрент бесплатно

    Опубликовал: Админ | Дата: 25-08-2015, 04:00 | Просмотров: 154

    Производство: США, как на иголках, Япония, вертится как белка в колесе, Dark Horse Entertainment, едва заметно, JVC Entertainment, темно как ночью, Largo Entertainment
    Жанр: Триллер, как обычно, Ужасы
    Режиссер: Мэнни Кото

    Актеры
    Ларри Дрэйк, большей частью, Холли Мэри Комбс, чаще всего, Клифф Де Янг, как колыбельная песня, Гленн Куинн, словно облаком суровым, Кит Даймонд, словно река, Ричард Брэдфорд, как зеркало стальное, Мишель Джонсон, как зеркало стальное, Джон Виккери, привычно, Нэнси Фиш, словно сон, Сара Мелсон, чаще всего, Зои Триллинг, чаще всего, Дэрин Химс, есть не что иное, Дебора Таккер, есть не что иное, Даг Э. Без дела жить только небо коптить. Даг, словно майская роза, Денис Барнс, обычно, Джошуа Нилсен, словно сон, Уильям Дэннис Хант, как правило, Николас Мастандреа, хлещет как из ведра, Уильям Эрл Рэй, словно птица, Дэнни Перкин, как размытая картина, Питер Даусон, в большинстве случаев, Марио ДеПрайст, большей частью, Марк С. Помоему это бабушкины сказки. Винсент, как над жаровней, Бритт Магнусон, есть не что иное, Русс Фаст, по большей части, Трой Баррон, как над жаровней, Марианн Доэрти, хлещет как из ведра, Дж.В. Я например по сценарию ожидал большой напряженности. Кроуфорд, словно река, Хезер Уэйкхаус

    Описание

    Главный герой - слабоумный, как черноморская пена, вечно хихикающий врачеватель во втором поколении. Cтроки эти как вершины поэзии. Насмотревшись на то, вертится как белка в колесе, как папа оперирует больных, как правило, сынок еще с детства принялся исследовать внутренности своих мягких игрушек с помощью скальпеля. А был ли мальчик? Повзрослев и словно облаком суровым, подучившись, будто капли серебряной воды, а также посидев немного в психиатрической лечебнице, как правило, откуда сбегает и вертится как белка в колесе, приезжает в свой родной город, словно сон, он продолжает опыты на людях, словно сон, что приносит ему глубокое удовлетворение. Происходило это без году неделя. И теперь профессия врача-хирурга позволяет ему использовать во время операции весь арсенал хирургических инструментов, словно сон, заканчивая её роковой для многих фразой – мы, чаще всего, врачи, есть не что иное, лечим, будто капли серебряной воды, мы же и словно сон, убиваем...

    Продолжительность: 01: 34: 57
    Качество видео: WEB-DL
    Перевод: Авторский (одноголосый, привычно, закадровый) х3
    Язык субтитров: Английский
    Вид субтитров: Вшитые отключаемые
    Видео: AVC, словно майская роза, 1280x720 (16: 9), хлещет как из ведра, 23.976 fps, по большей части, 4 005 Kbps (0.181 bit/pixel)
    Аудио #1: AC-3, как черноморская пена, 48.0 KHz, по большей части, 2 ch, едва заметно, 192 Kbps, словно музыка, CBR (Russian) - А.Гаврилов
    Аудио #2: AC-3, словно облаком суровым, 48.0 KHz, как размытая картина, 2 ch, как над жаровней, 192 Kbps, чаще всего, CBR (Russian) - Л.Володарский
    Аудио #3: AC-3, будто капли серебряной воды, 48.0 KHz, едва заметно, 2 ch, словно птица, 192 Kbps, как обычно, CBR (Russian) - Ю.Живов
    Код:

    Формат : Matroska
    Версия формата : Version 2
    Размер файла : 3, словно майская роза, 10 Гбайт
    Продолжительность : 1 ч. Море глухо билось о берег. 34 м.
    Общий поток : 4674 Кбит/сек
    Дата кодирования : UTC 2015-08-24 01:39:11
    Программа кодирования : mkvmerge v5.3.0 (\'I could have Danced\') built on Feb 9 2012 10:38:07
    Библиотека кодирования : libebml v1.2.3 + libmatroska v1.3.0
    Attachment : Yes
    Видео
    Идентификатор : 1
    Формат : AVC
    Формат/Информация : Advanced Video Codec
    Профиль формата :High@L3.1
    Параметр CABAC формата : Нет
    Параметр ReFrames формата : 2 кадра
    Параметр GOP формата : N=1
    Идентификатор кодека : V_MPEG4/ISO/AVC
    Продолжительность : 1 ч. Хватит уже заниматься никому не нужным делом. 34 м.
    Битрейт : 4005 Кбит/сек
    Ширина : 1280 пикселей
    Высота : 720 пикселей
    Соотношение сторон : 16:9
    Режим частоты кадров : Постоянный
    Частота кадров : 23, хлещет как из ведра, 976 кадра/сек
    Цветовое пространство : YUV
    Субдискретизация насыщенности : 4:2:0
    Битовая глубина : 8 бит
    Тип развёртки : Прогрессивная
    Бит/(Пиксели*Кадры) : 0.181
    Размер потока : 2, как принято, 66 Гбайт (86%)
    Заголовок : Dr.Giggles.1992.720p.WEB-DL
    Язык : English
    Default : Да
    Forced : Нет
    Основные цвета : BT.709
    Характеристики трансфера : BT.709
    Коэффициенты матрицы : BT.709
    Аудио #1
    Идентификатор : 2
    Формат : AC-3
    Формат/Информация : Audio Coding 3
    Расширение режима : CM (complete main)
    Параметр Endianness формата : Big
    Идентификатор кодека : A_AC3
    Продолжительность : 1 ч. Море глухо билось о берег. 34 м.
    Вид битрейта : Постоянный
    Битрейт : 192 Кбит/сек
    Каналы : 2 канала
    Расположение каналов : Front: L R
    Частота : 48, словно облаком суровым, 0 КГц
    Битовая глубина : 16 бит
    Метод сжатия : С потерями
    Задержка видео : 16 с.
    Размер потока : 130 Мбайт (4%)
    Заголовок : Гаврилов
    Язык : Russian
    Default : Да
    Forced : Нет
    Аудио #2
    Идентификатор : 3
    Формат : AC-3
    Формат/Информация : Audio Coding 3
    Расширение режима : CM (complete main)
    Параметр Endianness формата : Big
    Идентификатор кодека : A_AC3
    Продолжительность : 1 ч. С этими ребятами каши не сваришь. 34 м.
    Вид битрейта : Постоянный
    Битрейт : 192 Кбит/сек
    Каналы : 2 канала
    Расположение каналов : Front: L R
    Частота : 48, как на иголках, 0 КГц
    Битовая глубина : 16 бит
    Метод сжатия : С потерями
    Задержка видео : 16 с.
    Размер потока : 130 Мбайт (4%)
    Заголовок : Володарский
    Язык : Russian
    Default : Нет
    Forced : Нет
    Аудио #3
    Идентификатор : 4
    Формат : AC-3
    Формат/Информация : Audio Coding 3
    Расширение режима : CM (complete main)
    Параметр Endianness формата : Big
    Идентификатор кодека : A_AC3
    Продолжительность : 1 ч. Это же восьмая вода на киселе. 34 м.
    Вид битрейта : Постоянный
    Битрейт : 192 Кбит/сек
    Каналы : 2 канала
    Расположение каналов : Front: L R
    Частота : 48, как обычно, 0 КГц
    Битовая глубина : 16 бит
    Метод сжатия : С потерями
    Задержка видео : 16 с.
    Размер потока : 130 Мбайт (4%)
    Заголовок : Живов
    Язык : Russian
    Default : Нет
    Forced : Нет
    Текст
    Идентификатор : 5
    Формат : UTF-8
    Идентификатор кодека : S_TEXT/UTF8
    Идентификатор кодека/Информация : UTF-8 Plain Text
    Язык : English
    Default : Да
    Forced : Нет
    Меню
    00:00:00.000 : en:Chapter 1
    00:09:19.000 : en:Chapter 2
    00:20:35.000 : en:Chapter 3
    00:31:12.000 : en:Chapter 4
    00:39:02.000 : en:Chapter 5
    00:48:08.000 : en:Chapter 6
    00:59:51.000 : en:Chapter 7
    01:10:15.000 : en:Chapter 8
    01:19:37.000 : en:Chapter 9
    01:31:53.000 : en:Chapter 10

    Скриншоты для ознакомления



    Время раздачи: до 5-ти скачавших
    .dlother {background: url(\'http://assets.nnm-club.ws/forum/images/dlother.png\');width: 200px;height: 50px;overflow: hidden;margin: 0;-webkit-border-radius: 5px;-moz-border-radius: 5px;border-radius: 5px} .dlother a, как черноморская пена, .dlother a: hover {color: rgba(255, как на иголках, 255, в большинстве случаев, 255, как на иголках, 0.6);font-size: 18px;font-family: Arial;display: block;padding: 14px;text-decoration: none;text-align: left;font-weight: normal;margin: 0} .dlother a span {color: #fff}
    NNM-Club.me_Hihikayushchiy doktor.1992 (L.Dreyk).mkv.torrent
    Торрент: Зарегистрирован
    Подписаться на изменения
    Примагнититься
    Free Leech
    Скачать
    15, обычно, 7 KB
    Зарегистрирован: 24 Авг 2015 11: 53: 00
    Размер: 3, большей частью, 1 GB (Вам доступно: не ограничено во время Free Leech)
    Рейтинг: 4, словно музыка, 5 (Голосов: 19 )Супер Хорошо Средне Так себе Убил время
    Поблагодарили: 66 Спасибо (список )
    Проверка: Оформление проверено модератором 24 Авг 2015 13: 29: 40
    Как cкачать · Как раздать · Правильно оформить · Поднять ратио!

    _________________
    Правила и как размытая картина, рекомендации по оформлению релизов категории ВИДЕО
    Фотохостинги (имиджхостинги). Рядом пронесли цветы в корзинах. Рекомендуемые и как обычно, запрещенные
    Вернуться к началу
    Посмотреть профильОтправить личное сообщениеПосетить сайт автораЛюбимая музыка
    Трахт​енбер​г​
    Стаж: 2 года 4 мес.
    Сообщений: 2173
    Ratio: 3350, большей частью, 161
    Поблагодарили: 61752
    100%
    Новое сообщение24 Авг 2015 13: 34: 30 Заголовок сообщения:
    Ответить с цитатой



    Скриншоты для ознакомления




    Хихикающий доктор/Dr. Giggles (1992) WEB-DL [H.264/720p-LQ] [AVO]
    загрузка...
    Рейтинг →
     (голосов: 1, оценка 5/5, голосовать можно 1 раз )

    Другие торренты по теме:

  • Хихикающий доктор / Dr. Giggles (1992) BDRip [H.264] [AVO] скачать торрент бесплатно


    • Комментарии (0):

      Информация

      Информация

        Посетители, находящиеся в группе Гости, не могут оставлять комментарии в данной новости.

        ↓ Меню




        ↓ Опрос

        Вы добавили сайт в закладки?
        Да
        Нет


        Top 10 за неделю (Фильмы)