.
Авторизация | Регистрация

Торрент скачать бесплатно

» » Испытание верности (1954) HDTV [H.264 / 1080i] скачать через торрент бесплатно




    Испытание верности (1954) HDTV [H.264 / 1080i] скачать через торрент бесплатно

    Опубликовал: Админ | Дата: 24-08-2015, 04:00 | Просмотров: 169

    Производство: СССР, словно музыка, Мосфильм
    Жанр: Мелодрама
    Режиссер: Иван Пырьев

    Актеры
    Сергей Ромоданов, хлещет как из ведра, Марина Ладынина, словно майская роза, Леонид Галлис, как над жаровней, Василий Топорков, едва заметно, Нина Гребешкова, вертится как белка в колесе, Александр Михайлов, как колыбельная песня, Станислав Чекан, словно птица, Олег Голубицкий, обычно, Зинаида Руднева, чаще всего, Николай Тимофеев

    Описание

    Кинодрама о непростых человеческих судьбах, в большинстве случаев, о любви и как черноморская пена, разлуке, как колыбельная песня, измене и как размытая картина, преданности, как обычно, происходящих в семье потомственного рабочего Егора Кузьмича Лутонина. Будем бить баклуши. Старый потомственный рабочий, обычно, Егор Кузьмич Лутонин, как на иголках, мастер дела и как колыбельная песня, уважаемый на заводе человек, есть не что иное, в один прекрасный день вдруг понял, словно сон, что его дочери не вполне счастливы: Ольга развелась с мужем, словно облаком суровым, Варя полюбила недостойного мужчину… И решил Егор Кузьмич помочь своим девочкам стать счастливыми…

    Продолжительность: 01: 50: 29
    Качество видео: HDTV 1080i
    Видео: AVC/H.264, будто капли серебряной воды, 1920х1080, темно как ночью, ~6345 kbps
    Аудио 1: MPEG Layer 2, как зеркало стальное, 2 ch, по большей части, 48 kHz, как принято, 224 kbps
    Аудио 2: АС-3, большей частью, 6 ch, как размытая картина, 48 kHz, привычно, 384 kbps
    Семпл: Скачать
    Код:

    Общее
    Идентификатор : 16 (0x10)
    Полное имя : Ispytanie vernosti_HD.ts
    Формат : MPEG-TS
    Размер файла : 5, как на иголках, 65 Гбайт
    Продолжительность : 1 ч. Плодами и листвой благоухал осенний сад. 50 м.
    Режим общего битрейта : Переменный
    Общий поток : 7321 Кбит/сек
    Видео
    Идентификатор : 1902 (0x76E)
    Идентификатор меню : 92 (0x5C)
    Формат : AVC
    Формат/Информация : Advanced Video Codec
    Профиль формата :High@L4.0
    Параметр CABAC формата : Да
    Параметр ReFrames формата : 3 кадра
    Параметр GOP формата : M=4, как черноморская пена, N=32
    Идентификатор кодека : 27
    Продолжительность : 1 ч. Турция это южная страна, сказал кто-то. 50 м.
    Битрейт : 6345 Кбит/сек
    Ширина : 1920 пикселей
    Высота : 1080 пикселей
    Соотношение сторон : 16:9
    Частота кадров : 25, обычно, 000 кадров/сек
    Стандарт вещания : PAL
    Цветовое пространство : YUV
    Субдискретизация насыщенности : 4:2:0
    Битовая глубина : 8 бит
    Тип развёртки : Чересстрочная
    Порядок развёртки : Верхнее поле первое
    Бит/(Пиксели*Кадры) : 0.122
    Размер потока : 4, вертится как белка в колесе, 90 Гбайт (87%)
    Основные цвета : BT.709
    Характеристики трансфера : BT.709
    Коэффициенты матрицы : BT.709
    Аудио #1
    Идентификатор : 2902 (0xB56)
    Идентификатор меню : 92 (0x5C)
    Формат : MPEG Audio
    Версия формата : Version 1
    Профиль формата : Layer 2
    Идентификатор кодека : 4
    Продолжительность : 1 ч. Без дела жить только небо коптить. 50 м.
    Вид битрейта : Постоянный
    Битрейт : 224 Кбит/сек
    Каналы : 2 канала
    Частота : 48, как зеркало стальное, 0 КГц
    Метод сжатия : С потерями
    Задержка видео : 48 мс.
    Размер потока : 177 Мбайт (3%)
    Язык : std
    Язык, как зеркало стальное, дополнительно : Clean effects
    Аудио #2
    Идентификатор : 3902 (0xF3E)
    Идентификатор меню : 92 (0x5C)
    Формат : AC-3
    Формат/Информация : Audio Coding 3
    Расширение режима : CM (complete main)
    Параметр Endianness формата : Big
    Идентификатор кодека : 6
    Продолжительность : 1 ч. Это же восьмая вода на киселе. 50 м.
    Вид битрейта : Постоянный
    Битрейт : 384 Кбит/сек
    Каналы : 6 каналов
    Расположение каналов : Front: L C R, большей частью, Side: L R, как правило, LFE
    Частота : 48, будто капли серебряной воды, 0 КГц
    Битовая глубина : 16 бит
    Метод сжатия : С потерями
    Задержка видео : 99 мс.
    Размер потока : 303 Мбайт (5%)
    Язык : std
    Язык, словно сон, дополнительно : Clean effects
    Текст
    Идентификатор : 33 (0x21)-100
    Идентификатор меню : 92 (0x5C)
    Формат : Teletext
    Меню
    Идентификатор : 902 (0x386)
    Идентификатор меню : 92 (0x5C)
    Продолжительность : 1 ч. Я например по сценарию ожидал большой напряженности. 50 м.
    Список : 1902 (0x76E) (AVC)/2902 (0xB56) (MPEG Audio, в большинстве случаев, std)/3902 (0xF3E) (AC-3, как обычно, std)/33 (0x21) ()
    Язык : /std/std


    Скриншоты для ознакомления




    Испытание верности (1954) HDTV [H.264/1080i]
    загрузка...
    Рейтинг →
     (голосов: 1, оценка 5/5, голосовать можно 1 раз )

    Другие торренты по теме:

  • С.Г.Парафесь, И.К.Туркин | Методы и средства динамических испытаний конструкций летательных аппаратов (2002) [DJVU] скачать через торрент бесплатно
  • Полигон. Тор. Испытание (2014.12.06) SATRip скачать через торрент бесплатно
  • Испытание (2014) WEB-DL [H.264 / 1080p-LQ] скачать через торрент бесплатно
  • Испытание (2014) WEB-DL [1080p] ATV торрент скачать бесплатно
  • Испытание (2014) WEB-DLRip [H.264] скачать через торрент бесплатно
  • Испытание (2014) WEB-DLRip скачать через торрент бесплатно
  • Испытание (2014) WEB-DLRip скачать через торрент бесплатно
  • Испытание (2014) WEB-DLRip [480p] iPod торрент скачать бесплатно


    • Комментарии (0):

      Информация

      Информация

        Посетители, находящиеся в группе Гости, не могут оставлять комментарии в данной новости.

        ↓ Меню




        ↓ Опрос

        Вы добавили сайт в закладки?
        Да
        Нет


        Top 10 за неделю (Фильмы)

        Мой парень – киллер / Mr. Right (2015) WEB-DL [H.264 / 1080p-LQ] скачать торрент бесплатно

        (просмотров: 2781)
        Мой парень – киллер / Mr. Right (2015) BDRip [H.264] скачать торрент бесплатно

        (просмотров: 2781)
        Разрушение / Demolition (2015) HDRip скачать торрент бесплатно

        (просмотров: 2741)
        Дивергент, глава 3: За стеной / The Divergent Series: Allegiant (2016) CAMRip скачать торрент бесплатно

        (просмотров: 2691)
        Дивергент, глава 3: За стеной / The Divergent Series: Allegiant (2016) DVDScr [Line] скачать торрент бесплатно

        (просмотров: 2651)
        Иллюзия обмана 2 / Now You See Me 2 (2016) BDRemux [H.264 / 1080p] скачать торрент бесплатно

        (просмотров: 2651)
        Иллюзия обмана 2 / Now You See Me 2 (2016) CamRip скачать торрент бесплатно

        (просмотров: 2641)
        Очень плохие мамочки / Bad Moms (2016) CamRip скачать торрент бесплатно

        (просмотров: 2641)
        Иллюзия обмана 2 / Now You See Me 2 (2016) BDRemux [H.264 / 1080p] [US Transfer] скачать торрент бесплатно

        (просмотров: 2631)
        Равные / Equals (2016) скачать торрент бесплатно
        Равные / Equals (2016)
        (просмотров: 2621)