.
Авторизация | Регистрация

Торрент скачать бесплатно

» » До Антиба в один конец / En enkel till Antibes (2011) DVDRip [SW / FI, EN Sub] скачать через торрент бесплатно




    До Антиба в один конец / En enkel till Antibes (2011) DVDRip [SW / FI, EN Sub] скачать через торрент бесплатно

    Опубликовал: Админ | Дата: 24-08-2015, 04:00 | Просмотров: 211

    Производство: Швеция, будто капли серебряной воды, Cimbria Film AB, привычно, Filmpool Nord, словно сон, Sveriges Television (SVT)
    Жанр: Драма
    Режиссер: Ричард Хоберт

    Актеры
    Свен-Бертиль Таубе, темно как ночью, Ребекка Фергюсон, как обычно, Дэн Экборг, вертится как белка в колесе, Малин Ларссон, как черноморская пена, Ивар Викландер, как правило, Торкель Петерссон, как зеркало стальное, Катрин Рувель, чаще всего, Анита Валль, словно облаком суровым, Кристофер Воллтер, обычно, Марта Ольденбург

    Описание

    Фильм рассказывает о полуслепом вдовце Джордже, чаще всего, который случайно узнает, как обычно, что дети хотят заполучить наследство еще до его смерти, хлещет как из ведра, для чего составили хитроумный план. Как для меня не ожиданный поворот событий. Но Джордж не собирается сдаваться…

    Продолжительность: 01: 41: 30
    Качество видео: DVDRip
    Перевод: Отсутствует
    Язык озвучки: Шведский
    Язык субтитров: Финский, есть не что иное, Английский
    Вид субтитров: Отдельным файлом
    Видео: Xvid, большей частью, 712x376, как колыбельная песня, ~1780 Kbps
    Аудио: MP3, как на иголках, 2 ch, словно облаком суровым, 128 Kbps, как колыбельная песня, CBR
    Код:

    General
    Complete name : D:DownloadsMovies With Original LanguageEn Enkel Till Antibes (2011)En Enkel Till Antibes (2011).avi
    Format : AVI
    Format/Info : Audio Video Interleave
    File size : 1.36 GiB
    Duration : 1h 41mn
    Overall bit rate : 1 918 Kbps
    Writing application : FairUse Wizard - http://fairusewizard.com
    Writing library : The best and REALLY easy backup tool
    Video
    ID : 0
    Format : MPEG-4 Visual
    Format profile : Advanced Simple@L5
    Format settings, как принято, BVOP : 1
    Format settings, словно музыка, QPel : No
    Format settings, как черноморская пена, GMC : No warppoints
    Format settings, по большей части, Matrix : Default (MPEG)
    Muxing mode : Packed bitstream
    Codec ID : XVID
    Codec ID/Hint : XviD
    Duration : 1h 41mn
    Bit rate : 1 780 Kbps
    Width : 712 pixels
    Height : 376 pixels
    Display aspect ratio : 1.894
    Frame rate : 25.000 fps
    Color space : YUV
    Chroma subsampling : 4:2:0
    Bit depth : 8 bits
    Scan type : Progressive
    Compression mode : Lossy
    Bits/(Pixel*Frame) : 0.266
    Stream size : 1.26 GiB (93%)
    Writing library : XviD 1.2.1 (UTC 2008-12-04)
    Audio
    ID : 1
    Format : MPEG Audio
    Format version : Version 1
    Format profile : Layer 3
    Mode : Joint stereo
    Mode extension : MS Stereo
    Codec ID : 55
    Codec ID/Hint : MP3
    Duration : 1h 41mn
    Bit rate mode : Constant
    Bit rate : 128 Kbps
    Channel(s) : 2 channels
    Sampling rate : 48.0 KHz
    Compression mode : Lossy
    Stream size : 92.9 MiB (7%)
    Alignment : Aligned on interleaves
    Interleave, привычно, duration : 40 ms (1.00 video frame)
    Interleave, в большинстве случаев, preload duration : 504 ms
    Writing library : LAME3.97
    Encoding settings : -m j -V 4 -q 2 -lowpass 17 -b 128


    Скриншоты для ознакомления




    До Антиба в один конец/En enkel till Antibes (2011) DVDRip [SW/FI, EN Sub]
    загрузка...
    Рейтинг →
     (голосов: 1, оценка 4/5, голосовать можно 1 раз )

    Другие торренты по теме:



      Комментарии (0):

      Информация

      Информация

        Посетители, находящиеся в группе Гости, не могут оставлять комментарии в данной новости.

        ↓ Меню




        ↓ Опрос

        Вы добавили сайт в закладки?
        Да
        Нет


        Top 10 за неделю (Фильмы)