.
Авторизация | Регистрация
Хочешь лучшие торренты? Добавь свой email!
Добавить

Торрент скачать бесплатно

» » Приморский климат / Piejūras klimats (1974) DVDRip скачать через торрент бесплатно




    Приморский климат / Piejūras klimats (1974) DVDRip скачать через торрент бесплатно

    Опубликовал: Админ | Дата: 23-08-2015, 04:01 | Просмотров: 173

    Производство: СССР, Рижская киностудия
    Жанр: Комедия
    Режиссер: Роланд Калныньш

    Актеры
    Регина Разума, Ивар Калныньш, Улдис Думпис, Броне Брашките, Велта Страуме, Петерис Лиепиньш, Дзинтарс Вейтс, Арнольд Лининьш, Роландс Загорскис, Миервалдис Озолиньш, Светлана Блесс-Путе, Лига Лиепиня, Мирдза Мартинсоне, Эльза Радзиня, Женовьева Скангале, Анда Зайце, Улдис Паузерс, Ансис Эпнерс, Эйженс Иванов и др

    Описание

    Середина 1970-х годов. Молодые латышские рабочие - Эрик, Харий и Гунтис - трудятся в весьма гламурной рижской газовой конторе, которую возглавляет элегантный начальник Дунде. Во время летнего отдыха на пляже Эрик, представившись главным инженером, знакомится с очаровательной девушкой Дайной. Но через некоторое время выясняется, что именно Дайна - новый главный инженер газовой конторы, где работает Эрик. К тому же Дайна и Эрик встречаются на репетиции спектакля молодёжного театра, где им предстоит сыграть роли Антония и Клеопатры...
    Продолжительность: 00: 33: 58
    Качество видео: DVDRip
    Видео: Xvid, 704х320, ~2385 Кбит/сек
    Аудио 1: AC3, 192 Кбит/сек, 2 ch - русский (den904)
    Аудио 2: MP3, 224 Кбит/сек, 2 ch - латышский
    Язык субтитров: Русский
    Вид субтитров: Отдельным файлом, отключаемые
    Код:

    Общее
    Полное имя : E:Приморский климат (1974)Приморский климат (1974) DVDRip.avi
    Формат : AVI
    Формат/Информация : Audio Video Interleave
    Размер файла : 684 Мбайт
    Продолжительность : 33 м.
    Общий поток : 2816 Кбит/сек
    Программа кодирования : VirtualDubMod 1.5.10.2 (build 2540/release)
    Библиотека кодирования : VirtualDubMod build 2540/release
    Видео
    Идентификатор : 0
    Формат : MPEG-4 Visual
    Профиль формата : Advanced Simple@L5
    Параметр BVOP формата : 2
    Параметр QPel формата : Нет
    Параметр GMC формата : Без точки перехода
    Параметр матрицы формата : Default (H.263)
    Режим смешивания : Сжатый битовый поток
    Идентификатор кодека : XVID
    Идентификатор кодека/Подсказка : XviD
    Продолжительность : 33 м.
    Битрейт : 2385 Кбит/сек
    Ширина : 704 пикселя
    Высота : 320 пикселей
    Соотношение сторон : 2, 2:1
    Частота кадров : 25, 000 кадров/сек
    Цветовое пространство : YUV
    Субдискретизация насыщенности : 4:2:0
    Битовая глубина : 8 бит
    Тип развёртки : Прогрессивная
    Метод сжатия : С потерями
    Бит/(Пиксели*Кадры) : 0.423
    Размер потока : 580 Мбайт (85%)
    Библиотека кодирования : XviD 64
    Аудио #1
    Идентификатор : 1
    Формат : AC-3
    Формат/Информация : Audio Coding 3
    Расширение режима : CM (complete main)
    Параметр Endianness формата : Big
    Идентификатор кодека : 2000
    Продолжительность : 33 м.
    Вид битрейта : Постоянный
    Битрейт : 192 Кбит/сек
    Каналы : 2 канала
    Расположение каналов : Front: L R
    Частота : 48, 0 КГц
    Метод сжатия : С потерями
    Размер потока : 46, 7 Мбайт (7%)
    Выравнивание : Разделение по промежуткам
    Продолжительность промежутка : 40 мс. (1, 00 видеокадр)
    Время предзагрузки промежутка : 500 мс.
    Аудио #2
    Идентификатор : 2
    Формат : MPEG Audio
    Версия формата : Version 1
    Профиль формата : Layer 3
    Режим : Joint stereo
    Расширение режима : MS Stereo
    Идентификатор кодека : 55
    Идентификатор кодека/Подсказка : MP3
    Продолжительность : 33 м.
    Вид битрейта : Постоянный
    Битрейт : 224 Кбит/сек
    Каналы : 2 канала
    Частота : 48, 0 КГц
    Метод сжатия : С потерями
    Размер потока : 54, 4 Мбайт (8%)
    Выравнивание : Разделение по промежуткам
    Продолжительность промежутка : 40 мс. (1, 00 видеокадр)
    Время предзагрузки промежутка : 500 мс.
    Общее
    Полное имя : E:Приморский климат (1974)Приморский климат (1974) DVDRip.srt
    Формат : SubRip
    Размер файла : 26, 4 Кбайт
    Текст
    Формат : SubRip
    Метод сжатия : Без потерь


    Скриншоты для ознакомления




    Приморский климат/Piejūras klimats (1974) DVDRip
    загрузка...
    Рейтинг →
     (голосов: 1, оценка 4/5, голосовать можно 1 раз )

    Другие торренты по теме:

  • Приморский бульвар (1988) DVDRip (2 серии)
  • Приморский заповедник (2011) SATRip
  • Приморский бульвар (1988) DVDRip [H.264]


    • Комментарии (0):

      Информация

      Информация

        Посетители, находящиеся в группе Гости, не могут оставлять комментарии в данной новости.

        ↓ Меню




        ↓ Опрос

        Вы добавили сайт в закладки?
        Да
        Нет


        Top 10 за месяц (Фильмы)