.
Авторизация | Регистрация
Хочешь лучшие торренты? Добавь свой email!
Добавить

Торрент скачать бесплатно

» » Клан Ювелиров (2015) SATRip (серии 1-4 из 95) (обновляемая) скачать через торрент бесплатно




    Клан Ювелиров (2015) SATRip (серии 1-4 из 95) (обновляемая) скачать через торрент бесплатно

    Опубликовал: Админ | Дата: 22-08-2015, 04:00 | Просмотров: 453

    Производство: Украина, Front Cinema
    Жанр: авантюрная мелодрама
    Режиссер: Дмитрий Гольдман

    Актеры
    Наталия Денисенко, Андрей Фединчик, Константин Данилюк, Елизавета Зайцева (II), Марта Логачева, Анна Лебедева (II), Михаил Федорченко, Мария Хомутова, Светлана Зельбет, Лилия Яценко и др.

    Описание

    Георгий и Борис – виртуозные повелители драгоценных металлов и давние друзья. Вместе учились в академии искусств, вместе служили в армии. Но в один момент между ними встала девушка. Это и послужило началом криминальной войны на долгие годы и 95 серий. Ведь бывших приятелей связывает не только золото, но и мафия… События сериала будут вращаться в мире больших денег, драгоценностей где не существует правил и законов. Здесь опасность поджидает каждого, кто сделает неверный шаг в сторону. Каждый, кто осмелится пойти наперекор установленным правилам игры попадает в зону риска и может быть убит.
    Продолжительность: ~ 00: 57: 00 серия
    Качество видео: SATRip
    Видео: XviD, 720x400 (16: 9), ~1635 kb/s
    Аудио: MPEG Layer 3, 44.1 kHz, 2 ch, 192 kb/s, CBR
    Общее
    Полное имя : D: Клан Ювелиров (1 сезон любимого сериала)Клан Ювелиров.(001.seriya).2015.XviD.SATRip.by.simka.avi
    Формат : AVI
    Формат/Информация : Audio Video Interleave
    Размер файла : 749 Мбайт
    Продолжительность : 57 м.
    Общий поток : 1837 Кбит/сек
    Программа кодирования : VirtualDubMod 1.5.10.3 |www.virtualdub-fr.org|| (build 2550/release)
    Библиотека кодирования : VirtualDubMod build 2550/release
    Видео
    Идентификатор : 0
    Формат : MPEG-4 Visual
    Профиль формата : Advanced Simple@L5
    Параметр BVOP формата : 1
    Параметр QPel формата : Нет
    Параметр GMC формата : Без точки перехода
    Параметр матрицы формата : Default (MPEG)
    Идентификатор кодека : XVID
    Идентификатор кодека/Подсказка : XviD
    Продолжительность : 57 м.
    Битрейт : 1635 Кбит/сек
    Ширина : 720 пикселей
    Высота : 400 пикселей
    Соотношение сторон : 16: 9
    Частота кадров : 25, 000 кадров/сек
    Цветовое пространство : YUV
    Субдискретизация насыщенности : 4: 2: 0
    Битовая глубина : 8 бит
    Тип развёртки : Прогрессивная
    Метод сжатия : С потерями
    Бит/(Пиксели*Кадры) : 0.227
    Размер потока : 667 Мбайт (89%)
    Библиотека кодирования : XviD 1.2.1 (UTC 2008-12-04)
    Аудио
    Идентификатор : 1
    Формат : MPEG Audio
    Версия формата : Version 1
    Профиль формата : Layer 3
    Режим : Joint stereo
    Расширение режима : MS Stereo
    Идентификатор кодека : 55
    Идентификатор кодека/Подсказка : MP3
    Продолжительность : 57 м.
    Вид битрейта : Постоянный
    Битрейт : 192 Кбит/сек
    Каналы : 2 канала
    Частота : 44, 1 КГц
    Метод сжатия : С потерями
    Размер потока : 78, 3 Мбайт (10%)
    Выравнивание : Разделение по промежуткам
    Продолжительность промежутка : 40 мс. (1, 00 видеокадр)
    Время предзагрузки промежутка : 500 мс.
    Библиотека кодирования : LAME3.99r
    Настройки программы : -m j -V 4 -q 2 -lowpass 18.6 -b 192


    Скриншоты для ознакомления




    Клан Ювелиров (2015) SATRip (серии 1-4 из 95) (обновляемая)
    загрузка...
    Рейтинг →
     (голосов: 1, оценка 4/5, голосовать можно 1 раз )

    Другие торренты по теме:

  • Клан ювелиров (2015) WEB-DLRip [H.264 / 720p-LQ] (сезон 1, серии 1-20 из 20) скачать через торрент бесплатно
  • Клан ювелиров (2015) WEB-DLRip [H.264 / 1080p-LQ] (сезон 1, серии 1-20 из 20) скачать через торрент бесплатно
  • Клан ювелиров (2015) WEB-DLRip [H.264 / 1080p-LQ] (сезон 2, серии 1-19 из 19) скачать через торрент бесплатно
  • Клан ювелиров (2015) WEB-DLRip [H.264 / 720p-LQ] (сезон 2, серии 1-19 из 19) скачать через торрент бесплатно
  • Клан ювелиров. Битва (2015) WEB-DLRip [H.264 / 720p-LQ] (сезон 4, серии 1-16 из 16) скачать через торрент бесплатно
  • Клан ювелиров. Битва (2015) WEB-DLRip [H.264 / 1080p-LQ] (сезон 4, серии 1-16 из 16) скачать через торрент бесплатно
  • Клан ювелиров. Предательство (2015) WEB-DLRip [H.264 / 720p-LQ] (сезон 3, серии 1-20 из 20) скачать через торрент бесплатно
  • Клан ювелиров. Предательство (2015) WEB-DLRip [H.264 / 1080p-LQ] (сезон 3, серии 1-20 из 20) скачать через торрент бесплатно


    • Комментарии (0):

      Информация

      Информация

        Посетители, находящиеся в группе Гости, не могут оставлять комментарии в данной новости.

        ↓ Меню




        ↓ Опрос

        Вы добавили сайт в закладки?
        Да
        Нет


        Top 10 за месяц (Фильмы)