.
Авторизация | Регистрация
Хочешь лучшие торренты? Добавь свой email!
Добавить

Торрент скачать бесплатно

» » Герои: Возрождение / Heroes Reborn (2015) WEB-DL [H.264 / 1080p-LQ] (cезон 1, серии 0 из 13) (HamsterStudio) (обновляемая) скачать через торрент бесплатно




    Герои: Возрождение / Heroes Reborn (2015) WEB-DL [H.264 / 1080p-LQ] (cезон 1, серии 0 из 13) (HamsterStudio) (обновляемая) скачать через торрент бесплатно

    Опубликовал: Админ | Дата: 22-08-2015, 04:00 | Просмотров: 111

    Производство: США
    Жанр: фэнтези
    Режиссер: Лариса Кондрацки, как над жаровней, Грег Биман, как принято, Мэтт Шекман

    Актеры
    Джек Коулман, большей частью, Франческа Фишер-Иствуд, словно майская роза, Ноа Грэй-Кэби, как на иголках, Гэтлин Грин, по большей части, Грег Гранберг, темно как ночью, Райан Гузман, словно сон, Ив Харлоу, будто капли серебряной воды, Джимми Жан-Луи, как размытая картина, Робби Кей, хлещет как из ведра, Риа Килстедт и словно река, др.

    Описание

    Сюжет грядущего сериала Герои: Возрождение будет вращаться вокруг группы людей, словно музыка, неожиданно обнаруживших у себя экстраординарные способности. Я например по сценарию ожидал большой напряженности. Им предстоит столкнуться с теми, словно музыка, кто желает использовать их способности для своих гнусных целей…

    Дата мировой премьеры: 24.09.2015
    Продолжительность: ~ 00: 43: 00 серия
    Качество видео: WEB-DL 1080p
    Перевод: Многоголосый закадровый, как над жаровней, любительский - HamsterStudio
    Видео: AVC/H.264, будто капли серебряной воды, 1920x1080, как обычно, ~4949 Kbps
    Аудио №1 Rus: AC3, словно река, 48, словно майская роза, 0 КГц, обычно, 2 ch, есть не что иное, 192 kbps - многоголосый закадровый
    Аудио №2 Eng: AC3, словно облаком суровым, 48, словно облаком суровым, 0 КГц, есть не что иное, 2 ch, как правило, 192 kbps - оригинал
    Код:

    General
    Format : Matroska
    Format version : Version 4/Version 2
    File size : 1.63 GiB
    Duration : 42mn 58s
    Overall bit rate : 5 441 Kbps
    Encoded date : UTC 2015-08-19 11:05:36
    Writing application : mkvmerge v7.8.0 (\'River Man\') 64bit built on Mar 27 2015 16:31:37
    Writing library : libebml v1.3.1 + libmatroska v1.4.2
    DURATION : 00:42:58.496000000
    NUMBER_OF_FRAMES : 80578
    NUMBER_OF_BYTES : 61883904
    _STATISTICS_WRITING_APP : mkvmerge v7.8.0 (\'River Man\') 64bit built on Mar 27 2015 16:31:37
    _STATISTICS_WRITING_DATE_UT : 2015-08-19 11:05:36
    _STATISTICS_TAGS : BPS DURATION NUMBER_OF_FRAMES NUMBER_OF_BYTES
    Video
    ID : 1
    Format : AVC
    Format/Info : Advanced Video Codec
    Format profile : High@L4
    Format settings, по большей части, CABAC : Yes
    Format settings, темно как ночью, ReFrames : 4 frames
    Codec ID : V_MPEG4/ISO/AVC
    Duration : 42mn 58s
    Bit rate : 4 949 Kbps
    Width : 1 920 pixels
    Height : 1 080 pixels
    Display aspect ratio : 16:9
    Frame rate mode : Constant
    Frame rate : 23.976 fps
    Color space : YUV
    Chroma subsampling : 4:2:0
    Bit depth : 8 bits
    Scan type : Progressive
    Bits/(Pixel*Frame) : 0.100
    Stream size : 1.49 GiB (91%)
    Language : English
    Default : Yes
    Forced : No
    Color range : Limited
    Color primaries : BT.709
    Transfer characteristics : BT.709
    Matrix coefficients : BT.709
    Audio #1
    ID : 2
    Format : AC-3
    Format/Info : Audio Coding 3
    Mode extension : CM (complete main)
    Format settings, как черноморская пена, Endianness : Big
    Codec ID : A_AC3
    Duration : 42mn 58s
    Bit rate mode : Constant
    Bit rate : 192 Kbps
    Channel(s) : 2 channels
    Channel positions : Front: L R
    Sampling rate : 48.0 KHz
    Compression mode : Lossy
    Stream size : 59.0 MiB (4%)
    Language : Russian
    Default : Yes
    Forced : Yes
    Audio #2
    ID : 3
    Format : AC-3
    Format/Info : Audio Coding 3
    Mode extension : CM (complete main)
    Format settings, как колыбельная песня, Endianness : Big
    Codec ID : A_AC3
    Duration : 42mn 58s
    Bit rate mode : Constant
    Bit rate : 192 Kbps
    Channel(s) : 2 channels
    Channel positions : Front: L R
    Sampling rate : 48.0 KHz
    Compression mode : Lossy
    Stream size : 59.0 MiB (4%)
    Language : English
    Default : No
    Forced : No


    Скриншоты для ознакомления




    Герои: Возрождение/Heroes Reborn (2015) WEB-DL [H.264/1080p-LQ] (cезон 1, серии 0 из 13) (HamsterStudio) (обновляемая)
    загрузка...
    Рейтинг →
     (голосов: 1, оценка 5/5, голосовать можно 1 раз )

    Другие торренты по теме:

  • Герои: Возрождение / Heroes Reborn (2015) WEB-DL [H.264 / 720p-LQ] (сезон 1, серии 0 из 13) LostFilm (обновляемая) скачать через торрент бесплатно
  • Герои: Возрождение / Heroes Reborn (2015) WEB-DLRip (сезон 1, серия 00 из 13) LostFilm (обновляемая) скачать через торрент бесплатно
  • Герои: Возрождение / Heroes Reborn (2015) WEB-DLRip (сезон 1, серии 0-2 из 13) BaibaKo (обновляемая) скачать через торрент бесплатно
  • Герои: Возрождение / Heroes Reborn (2015) WEB-DL [H.264 / 720p-LQ] (сезон 1, серии 0-2 из 13) (BaibaKo) (обновляемая) скачать через торрент бесплатно
  • Герои: Возрождение / Heroes Reborn (2015) WEB-DLRip (сезон 1, серии 1-2 из 13) NewStudio (обновляемая) скачать через торрент бесплатно
  • Герои: Возрождение / Heroes Reborn (2015) WEB-DL [H.264 / 1080p-LQ] (сезон 1, серии 0-1 из 13) LostFilm (обновляемая) скачать через торрент бесплатно
  • Герои: Возрождение / Heroes Reborn (2015) WEB-DLRip (сезон 1, серии 1-6 из 13) NewStudio (обновляемая) скачать через торрент бесплатно
  • Heroes of Might & Magic III / Меч и Магия. Герои III. Возрождение Эрафии (2015) [Ru / En] (1.18 / upd4) Repack R.G. Steamgames [HD Edition] скачать через торрент бесплатно


    • Комментарии (0):

      Информация

      Информация

        Посетители, находящиеся в группе Гости, не могут оставлять комментарии в данной новости.

        ↓ Меню




        ↓ Опрос

        Вы добавили сайт в закладки?
        Да
        Нет


        Top 10 за месяц (Фильмы)