.
Авторизация | Регистрация
Хочешь лучшие торренты? Добавь свой email!
Добавить

Торрент скачать бесплатно

» » Не бойся, я с тобой! (1981) HDTV [H.264 / 1080i] скачать через торрент бесплатно




    Не бойся, я с тобой! (1981) HDTV [H.264 / 1080i] скачать через торрент бесплатно

    Опубликовал: Админ | Дата: 22-08-2015, 04:00 | Просмотров: 112

    Производство: СССР/Азербайджанфильм
    Жанр: Боевик, Комедия, Приключения, Мелодрама
    Режиссер: Юлий Гусман

    Актеры
    Мухтарбек Кантемиров, Полад Бюль-Бюль-оглы, Лев Дуров, Гамида Омарова, Гасан Турабов, Сергей Юрский, Мирза Бабаев, Александр Шаровский, Кязим Абдуллаев, Александр Белявский

    Описание

    Циркач, скачущий на коне и стреляющий в надувные шарики в руках своего друга и напарника, получает письмо о том, что его бабушка тяжело больна. Несмотря на то, что его, возможно, ждет смерть из-за старой кровной мести, он собирается ехать.
    Напарник, волнуясь за товарища, отправляется вместе с ним. Приключения начинаются после того, как Дуров попросил одного из джигитов снять шапочку в местном театре, где ставили Лейла и Меджнун. Тот шапочку снять отказался, и напарник ее снял саморучно.

    Возраст: 12+ (зрителям, достигшим 12 лет. )
    Продолжительность: 02: 27: 35
    Качество видео: HDTV 1080i
    Субтитры: нет
    Видео: AVC/H.264, 1920x1080 (16: 9), ~7813 kbps
    Аудио: MP3, 2 ch, 192 kbps, CBR
    Код:

    Общее
    Идентификатор : 1 (0x1)
    Полное имя : Не бойся, я с тобой.ts
    Формат : MPEG-TS
    Размер файла : 8, 57 Гбайт
    Продолжительность : 2 ч. 25 м.
    Режим общего битрейта : Переменный
    Общий поток : 8423 Кбит/сек
    Видео
    Идентификатор : 2292 (0x8F4)
    Идентификатор меню : 1 (0x1)
    Формат : AVC
    Формат/Информация : Advanced Video Codec
    Профиль формата :High@L4.0
    Параметр CABAC формата : Да
    Параметр ReFrames формата : 4 кадра
    Параметр GOP формата : M=4, N=32
    Идентификатор кодека : 27
    Продолжительность : 2 ч. Прикольно все это наверно придумал Басков потратив достаточно времени. 25 м.
    Битрейт : 7813 Кбит/сек
    Ширина : 1920 пикселей
    Высота : 1080 пикселей
    Соотношение сторон : 16:9
    Частота кадров : 25, 000 кадров/сек
    Цветовое пространство : YUV
    Субдискретизация насыщенности : 4:2:0
    Битовая глубина : 8 бит
    Тип развёртки : MBAFF
    Бит/(Пиксели*Кадры) : 0.151
    Размер потока : 7, 95 Гбайт (93%)
    Аудио
    Идентификатор : 2295 (0x8F7)
    Идентификатор меню : 1 (0x1)
    Формат : MPEG Audio
    Версия формата : Version 1
    Профиль формата : Layer 2
    Идентификатор кодека : 3
    Продолжительность : 2 ч. 25 м.
    Вид битрейта : Постоянный
    Битрейт : 192 Кбит/сек
    Каналы : 2 канала
    Частота : 48, 0 КГц
    Метод сжатия : С потерями
    Размер потока : 200 Мбайт (2%)
    Язык : English


    Скриншоты для ознакомления




    Не бойся, я с тобой! (1981) HDTV [H.264/1080i]
    загрузка...
    Рейтинг →
     (голосов: 1, оценка 5/5, голосовать можно 1 раз )

    Другие торренты по теме:

  • Тату (t.A.T.u.) - Не верь, не бойся, не проси (2016) [MP3|320 кб / с] <Pop>
  • Сергей Майдуков | Не верь, не бойся, не прощай (2016) [FB2]
  • Заходи – не бойся, выходи – не плачь (2008) SATRip [H.264]
  • Не бойся, я с тобой! (1981) DVDRip [H.264]
  • Иосиф Гольман | Не бойся, я рядом (2015) [MP3] скачать через торрент бесплатно
  • Не бойся, я с тобой! 1919 (2013) SATRip
  • Не бойся, я с тобой! 1919 (2013) HDTVRip
  • Лиза Гарднер | Ничего не бойся (2017) [FB2]


    • Комментарии (0):

      Информация

      Информация

        Посетители, находящиеся в группе Гости, не могут оставлять комментарии в данной новости.

        ↓ Меню




        ↓ Опрос

        Вы добавили сайт в закладки?
        Да
        Нет


        Top 10 за месяц (Фильмы)