.
Авторизация | Регистрация
Хочешь лучшие торренты? Добавь свой email!
Добавить

Торрент скачать бесплатно

» » Полицейский участок (2015) HDTVRip (серии 1-2 из 16) (обновляемая) скачать через торрент бесплатно




    Полицейский участок (2015) HDTVRip (серии 1-2 из 16) (обновляемая) скачать через торрент бесплатно

    Опубликовал: Админ | Дата: 21-08-2015, 13:32 | Просмотров: 98

    Производство: Россия, ВайТ Медиа
    Жанр: детектив
    Режиссер: Мирослав Малич

    Актеры
    Анна Снаткина, Олег Долин, Андрей Кузнецов, Михаил Тарабукин, Виктория Стивина, Петр Логачев, Роман Агеев, Андрей Чернышов, Анна Алексахина, Игорь Черневич, Кирилл Жандаров, Илья Борисов, Геннадий Смирнов, Алексей Фокин, Вячеслав Гумеров, Иван Кавунов, Майя Айрин Вада, Игорь Опарин и др.

    Описание

    После убийства мужа, собравшего компромат на чиновников очень высокого ранга, главную героиню — Полину Левашову (майора полиции) под вымышленной фамилией (Фомина) отправляют из Петербурга в маленький провинциальный город, чтобы спрятать от преступников, которые уверены, что информация с компроматом находится у неё.
    Там этой с виду хрупкой женщине предстоит возглавить отделение полиции, завоевать доверие команды полицейских-мужчин и защитить себя и детей от тех, кто убил ее мужа, а теперь, в погоне за секретными материалами, которые собрал её муж, охотятся за ней.

    Дата премьеры в РФ: 10 августа 2015
    Продолжительность: ~ 00: 45: 00 серия
    Качество видео: HDTVRip
    Видео: XVID, 720x360 (2: 1), ~1800 Kbps
    Аудио: AC3, 2 ch, 192 Kbps
    Код:
    Общее
    Полное имя : F:DOWNLOADSПолицейский участок (2015) HDTVRipПолицейский участок - 01 серия.avi
    Формат : AVI
    Формат/Информация : Audio Video Interleave
    Размер файла : 646 Мбайт
    Продолжительность : 45 м.
    Общий поток : 2004 Кбит/сек
    Программа кодирования : VirtualDubMod 1.5.10.3 |www.virtualdub-fr.org|| (build 2550/release)
    Библиотека кодирования : VirtualDubMod build 2550/release
    Видео
    Идентификатор : 0
    Формат : MPEG-4 Visual
    Профиль формата : Advanced Simple@L5
    Параметр BVOP формата : 1
    Параметр QPel формата : Нет
    Параметр GMC формата : Без точки перехода
    Параметр матрицы формата : Default (MPEG)
    Идентификатор кодека : XVID
    Идентификатор кодека/Подсказка : XviD
    Продолжительность : 45 м.
    Битрейт : 1803 Кбит/сек
    Ширина : 720 пикселей
    Высота : 360 пикселей
    Соотношение сторон : 2, 000
    Частота кадров : 25, 000 кадров/сек
    Цветовое пространство : YUV
    Субдискретизация насыщенности : 4:2:0
    Битовая глубина : 8 бит
    Тип развёртки : Прогрессивная
    Метод сжатия : С потерями
    Бит/(Пиксели*Кадры) : 0.278
    Размер потока : 581 Мбайт (90%)
    Библиотека кодирования : XviD 73
    Аудио
    Идентификатор : 1
    Формат : AC-3
    Формат/Информация : Audio Coding 3
    Расширение режима : CM (complete main)
    Параметр Endianness формата : Big
    Идентификатор кодека : 2000
    Продолжительность : 45 м.
    Вид битрейта : Постоянный
    Битрейт : 192 Кбит/сек
    Каналы : 2 канала
    Расположение каналов : Front: L R
    Частота : 48, 0 КГц
    Метод сжатия : С потерями
    Размер потока : 61, 9 Мбайт (10%)
    Выравнивание : Разделение по промежуткам
    Продолжительность промежутка : 40 мс. (1, 00 видеокадр)
    Время предзагрузки промежутка : 500 мс.


    Скриншоты для ознакомления




    Полицейский участок (2015) HDTVRip (серии 1-2 из 16) (обновляемая)
    загрузка...
    Рейтинг →
     (голосов: 1, оценка 4/5, голосовать можно 1 раз )

    Другие торренты по теме:

  • Полицейский участок (2015) SATRip (серии 1-2 из 16) (обновляемая) скачать через торрент бесплатно
  • Полицейский участок (2015) HDTVRip [H.264] (серии 1-4 из 16) (Обновляемая) скачать через торрент бесплатно
  • Полицейский участок (2015) HDTV [H.264 / 1080i-LQ] (серии 1-14 из 16) (обновляемая) скачать через торрент бесплатно
  • Полицейский участок (2015) HDTVRip [H.264 / 720p] (серии 1-14 из 16) (обновляемая) скачать через торрент бесплатно


    • Комментарии (0):

      Информация

      Информация

        Посетители, находящиеся в группе Гости, не могут оставлять комментарии в данной новости.

        ↓ Меню




        ↓ Опрос

        Вы добавили сайт в закладки?
        Да
        Нет


        Top 10 за месяц (Фильмы)