.
Авторизация | Регистрация

Торрент скачать бесплатно

» » Штамм / The Strain (США) WEB-DL [H.264 / 1080p-LQ] (сезон 2, серии 1-6 из 13) LostFilm, AlexFilm, NewStudio, OmskBird, BaibaKo (обновляемая) скачать через торрент бесплатно




    Штамм / The Strain (США) WEB-DL [H.264 / 1080p-LQ] (сезон 2, серии 1-6 из 13) LostFilm, AlexFilm, NewStudio, OmskBird, BaibaKo (обновляемая) скачать через торрент бесплатно

    Опубликовал: Админ | Дата: 21-08-2015, 13:32 | Просмотров: 1160

    Производство: США
    Жанр: Фантастика, чаще всего, Триллер, как размытая картина, Драма
    Режиссер: Фил Абрахам, как зеркало стальное, Питер Уэллер, как принято, Гильермо дель Торо

    Актеры
    Кори Столл, словно облаком суровым, Миа Маэстро, как обычно, Дэвид Брэдли, словно майская роза, Рихард Заммель, вертится как белка в колесе, Шон Эстин, вертится как белка в колесе, Джонатан Хайд, привычно, Кевин Дюран, словно сон, Джек Кеси, чаще всего, Натали Браун, как правило, Бен Хайленд и как обычно, др.

    Описание

    В аэропорту Нью-Йорка экстренно приземляется самолет, чаще всего, полный мертвецов. Это может быть лучший фундамент для сотрудничества. Для выяснения обстоятельств их смерти на борт направляются ученые, по большей части, возглавляемые лучшим городским эпидемиологом Эфраимом Гудвезером (Кори Столл). Это же восьмая вода на киселе. В ходе исследований становится ясно, словно птица, что пассажиры заражены вирусом вампиризма, как колыбельная песня, который грозит перерасти в масштабную эпидемию, привычно, способную погубить все человечество. Без дела жить только небо коптить. В обществе нарастает паника, как на иголках, а вызов болезни готовы бросить всего несколько человек: доктор Гудвезер, обычно, его команда медиков и как принято, группа обладающих специальными знаниями горожан, большей частью, в состав которой войдет и словно облаком суровым, крысолов по имени Василий Фет (Кевин Дюран).

    Продолжительность: ~00: 58: 00 серия
    Качество видео: WEB-DL 1080p
    Перевод: Многоголосый закадровый, как правило, профессиональный |LostFilm, как принято, AlexFilm, как колыбельная песня, NewStudio, будто капли серебряной воды, OmskBird, вертится как белка в колесе, BaibaKo
    Вид субтитров: Вшитые отключаемые
    Язык субтитров: русский (форсированные), обычно, русский (OmskBird), как черноморская пена, английский
    Видео: AVC/H.264, как принято, 1920x1080 (1.778: 1), будто капли серебряной воды, ~4800
    Аудио #1 rus: AC3, будто капли серебряной воды, 6 ch, словно облаком суровым, 384 kbps - многоголосый закадровый - LostFilm
    Аудио #2 rus: AC3, хлещет как из ведра, 6 ch, большей частью, 384 kbps - многоголосый закадровый - AlexFilm
    Аудио #3 rus: AC3, словно музыка, 6 ch, темно как ночью, 384 kbps - многоголосый закадровый - NewStudio
    Аудио #4 rus: AC3, есть не что иное, 6 ch, словно птица, 384 kbps - многоголосый закадровый - OmskBird
    Аудио #5 rus: AC3, темно как ночью, 6 ch, как обычно, 384 kbps - многоголосый закадровый - BaibaKo
    Аудио #6 eng: AC3, словно река, 6 ch, в большинстве случаев, 384 kbps - оригинал
    Код:

    Общее
    Уникальный идентификатор : 245700163821234446465108972420013255331 (0xB8D8215A51CBF5558345FB3B8A986AA3)
    Полное имя : G:FilmsThe.Strain.S02.1080p.WEB-DL.sborkaThe.Strain.S02E01.1080p.WEB-DL.5xRus.Eng.DD5.1.mkv
    Формат : Matroska
    Версия формата : Version 4/Version 2
    Размер файла : 2, едва заметно, 94 Гбайт
    Продолжительность : 58 м.
    Общий поток : 7241 Кбит/сек
    Дата кодирования : UTC 2015-08-14 18:56:24
    Программа кодирования : mkvmerge v8.2.0 (\'World of Adventure\') 64bit
    Библиотека кодирования : libebml v1.3.1 + libmatroska v1.4.2
    DURATION : 00:56:45.500000000
    NUMBER_OF_FRAMES : 706
    NUMBER_OF_BYTES : 36545
    _STATISTICS_WRITING_APP : mkvmerge v8.2.0 (\'World of Adventure\') 64bit
    _STATISTICS_WRITING_DATE_UTC : 2015-08-14 18:56:24
    _STATISTICS_TAGS : BPS DURATION NUMBER_OF_FRAMES NUMBER_OF_BYTES
    Видео
    Идентификатор : 1
    Формат : AVC
    Формат/Информация : Advanced Video Codec
    Профиль формата :High@L4.0
    Параметр CABAC формата : Да
    Параметр ReFrames формата : 4 кадра
    Идентификатор кодека : V_MPEG4/ISO/AVC
    Продолжительность : 58 м.
    Битрейт : 4793 Кбит/сек
    Ширина : 1920 пикселей
    Высота : 1080 пикселей
    Соотношение сторон : 16:9
    Режим частоты кадров : Постоянный
    Частота кадров : 23, есть не что иное, 976 кадра/сек
    Цветовое пространство : YUV
    Субдискретизация насыщенности : 4:2:0
    Битовая глубина : 8 бит
    Тип развёртки : Прогрессивная
    Бит/(Пиксели*Кадры) : 0.096
    Размер потока : 1, как на иголках, 95 Гбайт (66%)
    Язык : English
    Default : Да
    Forced : Нет
    Основные цвета : BT.709
    Характеристики трансфера : BT.709
    Коэффициенты матрицы : BT.709
    colour_range : Limited
    Аудио #1
    Идентификатор : 2
    Формат : AC-3
    Формат/Информация : Audio Coding 3
    Расширение режима : CM (complete main)
    Параметр Endianness формата : Big
    Идентификатор кодека : A_AC3
    Продолжительность : 58 м.
    Вид битрейта : Постоянный
    Битрейт : 384 Кбит/сек
    Каналы : 6 каналов
    Расположение каналов : Front: L C R, словно музыка, Side: L R, вертится как белка в колесе, LFE
    Частота : 48, как колыбельная песня, 0 КГц
    Битовая глубина : 16 бит
    Метод сжатия : С потерями
    Размер потока : 160 Мбайт (5%)
    Заголовок : LostFilm 5.1
    Язык : Russian
    Default : Да
    Forced : Нет
    Аудио #2
    Идентификатор : 3
    Формат : AC-3
    Формат/Информация : Audio Coding 3
    Расширение режима : CM (complete main)
    Параметр Endianness формата : Big
    Идентификатор кодека : A_AC3
    Продолжительность : 58 м.
    Вид битрейта : Постоянный
    Битрейт : 384 Кбит/сек
    Каналы : 6 каналов
    Расположение каналов : Front: L C R, как принято, Side: L R, будто капли серебряной воды, LFE
    Частота : 48, словно облаком суровым, 0 КГц
    Битовая глубина : 16 бит
    Метод сжатия : С потерями
    Размер потока : 160 Мбайт (5%)
    Заголовок : AlexFilm 5.1
    Язык : Russian
    Default : Нет
    Forced : Нет
    Аудио #3
    Идентификатор : 4
    Формат : AC-3
    Формат/Информация : Audio Coding 3
    Расширение режима : CM (complete main)
    Параметр Endianness формата : Big
    Идентификатор кодека : A_AC3
    Продолжительность : 58 м.
    Вид битрейта : Постоянный
    Битрейт : 384 Кбит/сек
    Каналы : 6 каналов
    Расположение каналов : Front: L C R, словно сон, Side: L R, в большинстве случаев, LFE
    Частота : 48, обычно, 0 КГц
    Битовая глубина : 16 бит
    Метод сжатия : С потерями
    Размер потока : 160 Мбайт (5%)
    Заголовок : NewStudio 5.1
    Язык : Russian
    Default : Нет
    Forced : Нет
    Аудио #4
    Идентификатор : 5
    Формат : AC-3
    Формат/Информация : Audio Coding 3
    Расширение режима : CM (complete main)
    Параметр Endianness формата : Big
    Идентификатор кодека : A_AC3
    Продолжительность : 58 м.
    Вид битрейта : Постоянный
    Битрейт : 384 Кбит/сек
    Каналы : 6 каналов
    Расположение каналов : Front: L C R, по большей части, Side: L R, большей частью, LFE
    Частота : 48, есть не что иное, 0 КГц
    Битовая глубина : 16 бит
    Метод сжатия : С потерями
    Размер потока : 160 Мбайт (5%)
    Заголовок : OmskBird 5.1
    Язык : Russian
    Default : Нет
    Forced : Нет
    Аудио #5
    Идентификатор : 6
    Формат : AC-3
    Формат/Информация : Audio Coding 3
    Расширение режима : CM (complete main)
    Параметр Endianness формата : Big
    Идентификатор кодека : A_AC3
    Продолжительность : 58 м.
    Вид битрейта : Постоянный
    Битрейт : 384 Кбит/сек
    Каналы : 6 каналов
    Расположение каналов : Front: L C R, в большинстве случаев, Side: L R, едва заметно, LFE
    Частота : 48, как размытая картина, 0 КГц
    Битовая глубина : 16 бит
    Метод сжатия : С потерями
    Размер потока : 160 Мбайт (5%)
    Заголовок : BaibaKo 5.1
    Язык : Russian
    Default : Нет
    Forced : Нет
    Аудио #6
    Идентификатор : 7
    Формат : AC-3
    Формат/Информация : Audio Coding 3
    Расширение режима : CM (complete main)
    Параметр Endianness формата : Big
    Идентификатор кодека : A_AC3
    Продолжительность : 58 м.
    Вид битрейта : Постоянный
    Битрейт : 384 Кбит/сек
    Каналы : 6 каналов
    Расположение каналов : Front: L C R, как над жаровней, Side: L R, хлещет как из ведра, LFE
    Частота : 48, как колыбельная песня, 0 КГц
    Битовая глубина : 16 бит
    Метод сжатия : С потерями
    Размер потока : 160 Мбайт (5%)
    Заголовок : original 5.1
    Язык : English
    Default : Нет
    Forced : Нет
    Текст #1
    Идентификатор : 8
    Формат : UTF-8
    Идентификатор кодека : S_TEXT/UTF8
    Идентификатор кодека/Информация : UTF-8 Plain Text
    Заголовок : ru (Forced)
    Язык : Russian
    Default : Нет
    Forced : Нет
    Текст #2
    Идентификатор : 9
    Формат : UTF-8
    Идентификатор кодека : S_TEXT/UTF8
    Идентификатор кодека/Информация : UTF-8 Plain Text
    Заголовок : rus (OmskBird)
    Язык : Russian
    Default : Нет
    Forced : Нет
    Текст #3
    Идентификатор : 10
    Формат : UTF-8
    Идентификатор кодека : S_TEXT/UTF8
    Идентификатор кодека/Информация : UTF-8 Plain Text
    Заголовок : CC
    Язык : English
    Default : Нет
    Forced : Нет


    Скриншоты для ознакомления




    Штамм/The Strain (США) WEB-DL [H.264/1080p-LQ] (сезон 2, серии 1-6 из 13) LostFilm, AlexFilm, NewStudio, OmskBird, BaibaKo (обновляемая)
    загрузка...
    Рейтинг →
     (голосов: 1, оценка 5/5, голосовать можно 1 раз )

    Другие торренты по теме:

  • Штамм / The Strain (2014) WEB-DLRip (Сезон 1, серии 01-11 из 13) LostFilm (Обновляемая) торрент скачать бесплатно
  • Штамм / The Strain (2014) WEB-DLRip (сезон 1, серии 1-11 из 13) NewStudio (обновляемая) торрент скачать бесплатно
  • Штамм / The Strain (2014) WEB-DL [H.264 / 1080p-LQ] (Сезон 1, серии 1-11 из 13) LostFilm (обновляемая) торрент скачать бесплатно
  • Штамм / The Strain (2014) WEB-DLRip (Сезон 1, серии 1-11 из 13) (AlexFilm) (обновляемая) торрент скачать бесплатно
  • Штамм / The Strain (2014) WEB-DL [720p] (Сезон 1, серия 01-11 из 13) (AlexFilm) (обновляемая) торрент скачать бесплатно
  • Штамм / The Strain (2014) WEB-DL [H.264 / 720p-LQ] (Сезон 1, серии 1-11 из 13) (LostFilm) (обновляемая) торрент скачать бесплатно
  • Штамм / The Strain (2014) WEB-DL [H.264 / 720p-LQ] (Сезон 1, серии 1-11 из 13) BaibaKo (обновляемая) торрент скачать бесплатно
  • Штамм / The Strain (2014) WEB-DL [H.264 / 1080p-LQ] (Сезон 1, серии 1-11 из 13) BaibaKo (обновляемая) торрент скачать бесплатно


    • Комментарии (0):

      Информация

      Информация

        Посетители, находящиеся в группе Гости, не могут оставлять комментарии в данной новости.

        ↓ Меню




        ↓ Опрос

        Вы добавили сайт в закладки?
        Да
        Нет


        Top 10 за неделю (Фильмы)

        Мой парень – киллер / Mr. Right (2015) WEB-DL [H.264 / 1080p-LQ] скачать торрент бесплатно

        (просмотров: 3571)
        Мой парень – киллер / Mr. Right (2015) BDRip [H.264] скачать торрент бесплатно

        (просмотров: 3561)
        Разрушение / Demolition (2015) HDRip скачать торрент бесплатно

        (просмотров: 3541)
        Дивергент, глава 3: За стеной / The Divergent Series: Allegiant (2016) CAMRip скачать торрент бесплатно

        (просмотров: 3501)
        Иллюзия обмана 2 / Now You See Me 2 (2016) CamRip скачать торрент бесплатно

        (просмотров: 3501)
        Иллюзия обмана 2 / Now You See Me 2 (2016) BDRemux [H.264 / 1080p] скачать торрент бесплатно

        (просмотров: 3471)
        Очень плохие мамочки / Bad Moms (2016) CamRip скачать торрент бесплатно

        (просмотров: 3451)
        Дивергент, глава 3: За стеной / The Divergent Series: Allegiant (2016) DVDScr [Line] скачать торрент бесплатно

        (просмотров: 3451)
        Иллюзия обмана 2 / Now You See Me 2 (2016) BDRemux [H.264 / 1080p] [US Transfer] скачать торрент бесплатно

        (просмотров: 3441)
        Крейсер / USS Indianapolis: Men of Courage (2016) WEBRip скачать торрент бесплатно

        (просмотров: 3441)