.
Авторизация | Регистрация
Хочешь лучшие торренты? Добавь свой email!
Добавить

Торрент скачать бесплатно

» » Вызов / Непокорная Земля / Defiance (2015) WEB-DL [H.264 / 1080p-LQ] (сезон 3, серии 1-11 из 13) LostFilm (обновляемая) скачать через торрент бесплатно




    Вызов / Непокорная Земля / Defiance (2015) WEB-DL [H.264 / 1080p-LQ] (сезон 3, серии 1-11 из 13) LostFilm (обновляемая) скачать через торрент бесплатно

    Опубликовал: Админ | Дата: 21-08-2015, 04:00 | Просмотров: 130

    Производство: США
    Жанр: фантастика, боевик, драма
    Режиссер: Майкл Нанкин

    Актеры
    Грант Боулер, Джули Бенц, Дьюшэйн Уильямс, Тони Карран, Тренна Китинг, Стефани Леонидас, Джейми Мюррэй, Николь Муньос, Джессика Николс, Джастин Рэйн и др.

    Описание

    Сюжет сериала Вызов рассказывает о Земле, какой она стала после Бледных войн: противостояния землян и прилетевших на поселение инопланетян, чья система бинарных солнц превратилась в сверхновую. После того, как потери с обеих сторон достигли ужасных размеров и на Землю по ошибке попали терраформирующие машины инопланетян, горстка солдат осознала бессмысленность взаимного истребления и бросает вызов своим командирам. Цепная реакция привела к перемирию между землянами и вотанцами. В начале сериала со времен объявления перемирия прошло 15 лет. Бывший солдат Джозеф Нолан со своей приемной дочкой-инопланетянкой Айриссой попадает в некогда родной Сент-Луис, и вынужденно становится защитником местных жителей на посту шерифа. Ему предстоит жить в городе, ныне носящем гордое название Вызов, населенном представителями 6 рас, и бороться с силами, пытающимися стереть его с лица Земли.

    Продолжительность: ~00: 43: 00 серия
    Качество видео: WEB-DL 1080p
    Перевод: Многоголосый закадровый, профессиональный -LostFilm
    Вид субтитров: вшитые отключаемые
    Язык субтитров: английский
    Видео: AVC/H.264, 1920x1080 (1.778: 1), ~ 5000 kbps
    Аудио rus: AC3, 6 ch, 384 kbps - многоголосый закадровый
    Аудио eng: AC3, 6 ch, 384 kbps - оригинал
    Код:

    Общее
    Уникальный идентификатор : 230933287920281599997141700468674105703 (0xADBC2228DF0F3D88B008C8A15DA79167)
    Полное имя : G:FilmsDefiance.S03.1080p.WEB-DL.DD5.1Defiance.S03E01-02.1080p.WEB-DL.LostFilm.DD5.1.mkv
    Формат : Matroska
    Версия формата : Version 4/Version 2
    Размер файла : 3, 37 Гбайт
    Продолжительность : 1 ч. 23 м.
    Общий поток : 5797 Кбит/сек
    Дата кодирования : UTC 2015-07-29 10:21:56
    Программа кодирования : mkvmerge v8.2.0 (\'World of Adventure\') 64bit
    Библиотека кодирования : libebml v1.3.1 + libmatroska v1.4.2
    DURATION : 01:22:45.758000000
    NUMBER_OF_FRAMES : 1243
    NUMBER_OF_BYTES : 31931
    _STATISTICS_WRITING_APP : mkvmerge v8.2.0 (\'World of Adventure\') 64bit
    _STATISTICS_WRITING_DATE_UTC : 2015-07-29 10:21:56
    _STATISTICS_TAGS : BPS DURATION NUMBER_OF_FRAMES NUMBER_OF_BYTES
    Видео
    Идентификатор : 1
    Формат : AVC
    Формат/Информация : Advanced Video Codec
    Профиль формата :High@L4.0
    Параметр CABAC формата : Да
    Параметр ReFrames формата : 4 кадра
    Идентификатор кодека : V_MPEG4/ISO/AVC
    Продолжительность : 1 ч. 23 м.
    Битрейт : 4914 Кбит/сек
    Ширина : 1920 пикселей
    Высота : 1080 пикселей
    Соотношение сторон : 16:9
    Режим частоты кадров : Постоянный
    Частота кадров : 23, 976 кадра/сек
    Цветовое пространство : YUV
    Субдискретизация насыщенности : 4:2:0
    Битовая глубина : 8 бит
    Тип развёртки : Прогрессивная
    Бит/(Пиксели*Кадры) : 0.099
    Размер потока : 2, 85 Гбайт (85%)
    Язык : English
    Default : Да
    Forced : Нет
    Основные цвета : BT.709
    Характеристики трансфера : BT.709
    Коэффициенты матрицы : BT.709
    colour_range : Limited
    Аудио #1
    Идентификатор : 2
    Формат : AC-3
    Формат/Информация : Audio Coding 3
    Расширение режима : CM (complete main)
    Параметр Endianness формата : Big
    Идентификатор кодека : A_AC3
    Продолжительность : 1 ч. Прикольно все это наверно придумал Кравчук потратив достаточно времени. 23 м.
    Вид битрейта : Постоянный
    Битрейт : 384 Кбит/сек
    Каналы : 6 каналов
    Расположение каналов : Front: L C R, Side: L R, LFE
    Частота : 48, 0 КГц
    Битовая глубина : 16 бит
    Метод сжатия : С потерями
    Размер потока : 228 Мбайт (7%)
    Заголовок : LostFilm 5.1
    Язык : Russian
    Default : Да
    Forced : Нет
    Аудио #2
    Идентификатор : 3
    Формат : AC-3
    Формат/Информация : Audio Coding 3
    Расширение режима : CM (complete main)
    Параметр Endianness формата : Big
    Идентификатор кодека : A_AC3
    Продолжительность : 1 ч. О таком странном сюжете не догадывалась даже Верка Сердючка. 23 м.
    Вид битрейта : Постоянный
    Битрейт : 384 Кбит/сек
    Каналы : 6 каналов
    Расположение каналов : Front: L C R, Side: L R, LFE
    Частота : 48, 0 КГц
    Битовая глубина : 16 бит
    Метод сжатия : С потерями
    Размер потока : 228 Мбайт (7%)
    Заголовок : original 5.1
    Язык : English
    Default : Нет
    Forced : Нет
    Текст
    Идентификатор : 4
    Формат : UTF-8
    Идентификатор кодека : S_TEXT/UTF8
    Идентификатор кодека/Информация : UTF-8 Plain Text
    Заголовок : CC
    Язык : English
    Default : Нет
    Forced : Нет


    Скриншоты для ознакомления




    Вызов/Непокорная Земля/Defiance (2015) WEB-DL [H.264/1080p-LQ] (сезон 3, серии 1-11 из 13) LostFilm (обновляемая)
    загрузка...
    Рейтинг →
     (голосов: 1, оценка 5/5, голосовать можно 1 раз )

    Другие торренты по теме:

  • Вызов бездне 3D / Deepsea Challenge 3D (2014) HDRip [Line]
  • Вызов бездне 3D / Deepsea Challenge 3D (2014) BDRip [720p]
  • Вызов бездне 3D / Deepsea Challenge 3D (2014) BDRip [1080p]
  • Право голоса. Исламское государство: новый вызов (27.02.2015) SATRip скачать через торрент бесплатно
  • Павел Колесов | Тест-Драйв: лучшие тренинги (+ "2012 Сбыча Мечт: Вызов") (2006-2012) WEBRip скачать через торрент бесплатно
  • Вызов / Непокорная Земля / Defiance (2015) WEB-DLRip (сезон 3, серии 1-2 из 13) LostFilm (обновляемая) скачать через торрент бесплатно
  • Вызов / Непокорная Земля / Defiance (2015) WEB-DL [H.264 / 720p-LQ] (сезон 3, серии 1-2 из 13) (LostFilm) (обновляемая) скачать через торрент бесплатно
  • Вызов / Непокорная Земля / Defiance (2015) WEB-DL [H.264] (Сезон 3, серии 1-2 из 13) LostFilm [MP4|1280x720] скачать через торрент бесплатно


    • Комментарии (0):

      Информация

      Информация

        Посетители, находящиеся в группе Гости, не могут оставлять комментарии в данной новости.

        ↓ Меню




        ↓ Опрос

        Вы добавили сайт в закладки?
        Да
        Нет


        Top 10 за месяц (Фильмы)