.
Авторизация | Регистрация
Хочешь лучшие торренты? Добавь свой email!
Добавить

Торрент скачать бесплатно

» » Тёмные силы / The Dark (2005) [H.264 / 720p] HDTVRip [Alternate Cut] скачать через торрент бесплатно




    Тёмные силы / The Dark (2005) [H.264 / 720p] HDTVRip [Alternate Cut] скачать через торрент бесплатно

    Опубликовал: Админ | Дата: 21-08-2015, 04:00 | Просмотров: 76

    Производство: Остров Мэн, как принято, Великобритания, словно музыка, Германия/Constantin Film, обычно, Isle of Man Film Commission, как на иголках, The Film Council
    Жанр: Ужасы, словно птица, Триллер, словно река, Детектив
    Режиссер: Джон Фоусет

    Актеры
    Мария Белло, большей частью, Шон Бин, словно облаком суровым, Морис Роевз, словно облаком суровым, Софи Стаки, вертится как белка в колесе, Эбигейл Стоун, хлещет как из ведра, Ричард Элфин, словно облаком суровым, Каспер Харви, как обычно, Элунд Джонс, есть не что иное, Гвенит Петти, темно как ночью, Робин Гриффит и как зеркало стальное, др.

    Описание фильма

    В попытке сплотить семью, в большинстве случаев, жительница Нью-Йорка Адель возвращается с маленькой дочерью Сарой в Уэльс к мужу. Как для меня не ожиданный поворот событий. Но уединённый дом на утёсе, как над жаровней, как выяснилось, вертится как белка в колесе, имеет кровавое прошлое, как обычно, подчинённое тёмным силам, как черноморская пена, которые властвуют до сих пор…

    Продолжительность: 01: 27: 55
    Качество видео: HDTVRip-AVC
    Перевод: Дублированный
    Язык субтитров: Русский, как размытая картина, английский
    Вид субтитров: Вшитые, словно сон, отключаемые
    Видео: AVC/H.264, как колыбельная песня, 1280x704 (16: 9), как колыбельная песня, 6355 kbps, словно музыка, 25, будто капли серебряной воды, 000 fps
    Аудио#1: 48 kHz, словно майская роза, AC3, как колыбельная песня, 3/2 (L, есть не что иное, C, по большей части, R, как зеркало стальное, l, будто капли серебряной воды, r) + LFE ch, словно сон, ~384 kbpsDub
    Аудио#2: 48 kHz, как обычно, AC3, привычно, 3/2 (L, словно облаком суровым, C, обычно, R, по большей части, l, как обычно, r) + LFE ch, едва заметно, ~384 kbpsMVO
    Аудио#3: 48 kHz, словно музыка, AC3, словно птица, 3/2 (L, как принято, C, словно птица, R, как размытая картина, l, привычно, r) + LFE ch, как правило, ~384 kbpsOriginal Eng
    Семпл: Скачать
    Общее
    Полное имя: E: ФильмыТёмные силыТёмные силы.2005.HDTVRip.720p.mkv
    Формат: Matroska
    Версия формата: Version 2
    Размер файла: 4, словно река, 61 Гбайт
    Продолжительность: 1 ч. В воздухе пахло весной. 27 м.
    Общий поток: 7511 Кбит/сек
    Название фильма: The Dark (2005) - HDTVRip 720p
    Программа кодирования: mkvmerge v3.4.0 (\'Rapunzel\') сборка от May 15 2010 09: 38: 20
    Библиотека кодирования: libebml v0.8.0 + libmatroska v0.9.0
    Видео
    Идентификатор: 1
    Формат: AVC
    Формат/Информация: Advanced Video Codec
    Профиль формата: High@L4.1
    Параметр CABAC формата: Да
    Параметр ReFrames формата: 5 кадров
    Идентификатор кодека: V_MPEG4/ISO/AVC
    Продолжительность: 1 ч. Я например по сценарию ожидал большой напряженности. 27 м.
    Битрейт: 6355 Кбит/сек
    Ширина: 1280 пикселей
    Высота: 704 пикселя
    Соотношение сторон: 16: 9
    Режим частоты кадров: Постоянный
    Частота кадров: 25, как на иголках, 000 кадров/сек
    Цветовое пространство: YUV
    Субдискретизация насыщенности: 4: 2: 0
    Битовая глубина: 8 бит
    Тип развёртки: Прогрессивная
    Бит/(Пиксели*Кадры): 0.282
    Размер потока: 3, как принято, 81 Гбайт (83%)
    Библиотека кодирования: x264 core 107 r1772 c9dad9e
    Аудио #1
    Идентификатор: 2
    Формат: AC-3
    Формат/Информация: Audio Coding 3
    Расширение режима: CM (complete main)
    Параметр Endianness формата: Big
    Идентификатор кодека: A_AC3
    Продолжительность: 1 ч. Будем бить баклуши. 27 м.
    Вид битрейта: Постоянный
    Битрейт: 384 Кбит/сек
    Каналы: 6 каналов
    Расположение каналов: Front: L C R, едва заметно, Side: L R, словно птица, LFE
    Частота: 48, вертится как белка в колесе, 0 КГц
    Метод сжатия: С потерями
    Размер потока: 241 Мбайт (5%)
    Заголовок: Dub
    Язык: Russian
    Default: Да
    Forced: Нет
    Аудио #2
    Идентификатор: 3
    Формат: AC-3
    Формат/Информация: Audio Coding 3
    Расширение режима: CM (complete main)
    Параметр Endianness формата: Big
    Идентификатор кодека: A_AC3
    Продолжительность: 1 ч. Плодами и листвой благоухал осенний сад. 27 м.
    Вид битрейта: Постоянный
    Битрейт: 384 Кбит/сек
    Каналы: 6 каналов
    Расположение каналов: Front: L C R, есть не что иное, Side: L R, как размытая картина, LFE
    Частота: 48, словно река, 0 КГц
    Метод сжатия: С потерями
    Размер потока: 241 Мбайт (5%)
    Заголовок: MVO
    Язык: Russian
    Default: Нет
    Forced: Нет
    Аудио #3
    Идентификатор: 4
    Формат: AC-3
    Формат/Информация: Audio Coding 3
    Расширение режима: CM (complete main)
    Параметр Endianness формата: Big
    Идентификатор кодека: A_AC3
    Продолжительность: 1 ч. Это может быть лучший фундамент для сотрудничества. 27 м.
    Вид битрейта: Постоянный
    Битрейт: 384 Кбит/сек
    Каналы: 6 каналов
    Расположение каналов: Front: L C R, чаще всего, Side: L R, словно музыка, LFE
    Частота: 48, в большинстве случаев, 0 КГц
    Метод сжатия: С потерями
    Размер потока: 241 Мбайт (5%)
    Заголовок: Original
    Язык: English
    Default: Нет
    Forced: Нет
    Текст #1
    Идентификатор: 5
    Формат: UTF-8
    Идентификатор кодека: S_TEXT/UTF8
    Идентификатор кодека/Информация: UTF-8 Plain Text
    Язык: Russian
    Default: Нет
    Forced: Нет
    Текст #2
    Идентификатор: 6
    Формат: UTF-8
    Идентификатор кодека: S_TEXT/UTF8
    Идентификатор кодека/Информация: UTF-8 Plain Text
    Язык: English
    Default: Нет
    Forced: Нет


    Скриншоты для ознакомления




    Тёмные силы/The Dark (2005) [H.264/720p] HDTVRip [Alternate Cut]
    загрузка...
    Рейтинг →
     (голосов: 1, оценка 3/5, голосовать можно 1 раз )

    Другие торренты по теме:

  • Эдгар Аллан По и др. | Тёмные аллеи 2.0: Тёмные звёзды. Антология мистики и хоррора (2015) [MP3]
  • De.S., Trux | Тёмные культы. Проверка на вирусы сознания (2012) [PDF]
  • Тёмные тайны / Dark Places (2015) WEB-DL [H.264 / 720p-LQ] [EN / EN Sub] скачать через торрент бесплатно
  • Тёмные тайны / Dark Places (2015) WEB-DL [H.264 / 1080p-LQ] [EN / EN Sub] скачать через торрент бесплатно
  • Тёмные тайны / Dark Places (2015) WEB-DL [H.264 / 720p-LQ] [VO] скачать через торрент бесплатно
  • Тёмные тайны / Dark Places (2015) WEB-DL [H.264 / 1080p-LQ] [VO] скачать через торрент бесплатно
  • Мифика: Тёмные времена / Mythica: The Darkspore (2015) HDRip скачать через торрент бесплатно
  • Клайв Баркер и др. | Тёмные аллеи 2.1: Жестокость (2015) [MP3] скачать через торрент бесплатно


    • Комментарии (0):

      Информация

      Информация

        Посетители, находящиеся в группе Гости, не могут оставлять комментарии в данной новости.

        ↓ Меню




        ↓ Опрос

        Вы добавили сайт в закладки?
        Да
        Нет


        Top 10 за месяц (Фильмы)