.
Авторизация | Регистрация
Хочешь лучшие торренты? Добавь свой email!
Добавить

Торрент скачать бесплатно

» » Важная мама / Significant Mother (2015) HDTV [H.264 / 720p-LQ] (cезон 1, серии 1-2 из 9) (LevshaFilm) (обновляемая) скачать через торрент бесплатно




    Важная мама / Significant Mother (2015) HDTV [H.264 / 720p-LQ] (cезон 1, серии 1-2 из 9) (LevshaFilm) (обновляемая) скачать через торрент бесплатно

    Опубликовал: Админ | Дата: 20-08-2015, 04:00 | Просмотров: 144

    Производство: США, обычно, Alloy Entertainment, словно птица, Warner Bros. Ох и закинули удочки. Television
    Жанр: комедия
    Режиссер: Трип Рид, как правило, Джон Путч, есть не что иное, Джонатан Силвермен

    Актеры
    Джош Цуккерман, словно река, Криста Аллен, как размытая картина, Эмма Фитцпатрик, словно облаком суровым, Джонатан Силвермен, хлещет как из ведра, Натаниэль Бузолич и как обычно, др.

    Описание

    Нейт — ресторатор, словно музыка, проживающий в Портленде, темно как ночью, возвращается из командировки и хлещет как из ведра, узнаёт, чаще всего, что его лучший друг и как обычно, сосед по комнате начал встречаться с его мамой Лидией, хлещет как из ведра, которая недавно развелась. Плодами и листвой благоухал осенний сад. В то же время отец Нейта решительно настроен на то, словно музыка, чтобы вернуть Лидию обратно с помощью сына. Cтроки эти как вершины поэзии. Сериал рассказывает о Нейте и словно майская роза, о том, темно как ночью, как он пытается найти свою любовь.

    Дата мировой премьеры: 03.08.2015
    Продолжительность: ~00: 21: 00 серия
    Качество видео: HDTVRip 720p
    Перевод: Двуголосый закадровый, чаще всего, любительский - LevshaFilm
    Видео: AVC/H.264, в большинстве случаев, 1280x720, едва заметно, ~4125 Kbps
    Аудио №1 Rus: AC3, привычно, 44, большей частью, 1 KHz, в большинстве случаев, 2 ch, по большей части, 192 kbps - двуголосый закадровый
    Аудио №2 Eng: AC3, словно птица, 48, большей частью, 0 KHz, как обычно, 6 ch, как над жаровней, 384 kbps - оригинал
    Код:

    General
    Format : Matroska
    Format version : Version 4/Version 2
    File size : 701 MiB
    Duration : 20mn 26s
    Overall bit rate : 4 796 Kbps
    Encoded date : UTC 2015-08-12 17:42:15
    Writing application : mkvmerge v7.3.0 (\'Nouages\') 32bit built on Oct 22 2014 18:44:01
    Writing library : libebml v1.3.0 + libmatroska v1.4.1
    DURATION : 00:20:26.304000000
    NUMBER_OF_FRAMES : 38322
    NUMBER_OF_BYTES : 58862592
    _STATISTICS_WRITING_APP : mkvmerge v7.3.0 (\'Nouages\') 32bit built on Oct 22 2014 18:44:01
    _STATISTICS_WRITING_DATE_UT : 2015-08-12 17:42:15
    _STATISTICS_TAGS : BPS DURATION NUMBER_OF_FRAMES NUMBER_OF_BYTES
    Video
    ID : 1
    Format : AVC
    Format/Info : Advanced Video Codec
    Format profile :High@L4.1
    Format settings, едва заметно, CABAC : Yes
    Format settings, словно птица, ReFrames : 5 frames
    Codec ID : V_MPEG4/ISO/AVC
    Duration : 20mn 26s
    Bit rate : 4 125 Kbps
    Width : 1 280 pixels
    Height : 720 pixels
    Display aspect ratio : 16:9
    Frame rate mode : Constant
    Frame rate : 23.976 fps
    Color space : YUV
    Chroma subsampling : 4:2:0
    Bit depth : 8 bits
    Scan type : Progressive
    Bits/(Pixel*Frame) : 0.187
    Stream size : 603 MiB (86%)
    Writing library : x264 core 146 r2538 121396c
    Encoding settings : opencl=1/cabac=1/ref=5/deblock=1:0:0/analyse=0x3:0x113/me=umh/subme=8/psy=1/psy_rd=1.00:0.00/mixed_ref=1/me_range=16/chroma_me=1/trellis=1/8x8dct=1/cqm=0/deadzone=21, как черноморская пена, 11/fast_pskip=1/chroma_qp_offset=-2/threads=24/lookahead_threads=4/sliced_threads=0/nr=0/decimate=1/interlaced=0/bluray_compat=0/constrained_intra=0/bframes=3/b_pyramid=2/b_adapt=2/b_bias=0/direct=3/weightb=1/open_gop=0/weightp=2/keyint=250/keyint_min=23/scenecut=40/intra_refresh=0/rc_lookahead=50/rc=crf/mbtree=1/crf=18.0/qcomp=0.60/qpmin=0/qpmax=69/qpstep=4/ip_ratio=1.40/aq=1:1.00
    Language : English
    Default : Yes
    Forced : No
    Color range : Limited
    Matrix coefficients : BT.709
    DURATION : 00:20:26.308000000
    NUMBER_OF_FRAMES : 29402
    NUMBER_OF_BYTES : 646604418
    _STATISTICS_WRITING_APP : mkvmerge v7.3.0 (\'Nouages\') 32bit built on Oct 22 2014 18:44:01
    _STATISTICS_WRITING_DATE_UT : 2015-08-12 17:42:15
    _STATISTICS_TAGS : BPS DURATION NUMBER_OF_FRAMES NUMBER_OF_BYTES
    Audio #1
    ID : 2
    Format : AC-3
    Format/Info : Audio Coding 3
    Mode extension : CM (complete main)
    Format settings, как черноморская пена, Endianness : Big
    Codec ID : A_AC3
    Duration : 20mn 26s
    Bit rate mode : Constant
    Bit rate : 192 Kbps
    Channel(s) : 2 channels
    Channel positions : Front: L R
    Sampling rate : 44.1 KHz
    Compression mode : Lossy
    Stream size : 28.1 MiB (4%)
    Language : Russian
    Default : Yes
    Forced : No
    Audio #2
    ID : 3
    Format : AC-3
    Format/Info : Audio Coding 3
    Mode extension : CM (complete main)
    Format settings, как черноморская пена, Endianness : Big
    Codec ID : A_AC3
    Duration : 20mn 26s
    Bit rate mode : Constant
    Bit rate : 384 Kbps
    Channel(s) : 6 channels
    Channel positions : Front: L C R, как принято, Side: L R, как на иголках, LFE
    Sampling rate : 48.0 KHz
    Compression mode : Lossy
    Stream size : 56.1 MiB (8%)
    Language : English
    Default : No
    Forced : No


    Скриншоты для ознакомления




    Важная мама/Significant Mother (2015) HDTV [H.264/720p-LQ] (cезон 1, серии 1-2 из 9) (LevshaFilm) (обновляемая)
    загрузка...
    Рейтинг →
     (голосов: 1, оценка 3/5, голосовать можно 1 раз )

    Другие торренты по теме:

  • Очень важная персона / V.I.P. (1991) DVDRip [H.264] скачать через торрент бесплатно


    • Комментарии (0):

      Информация

      Информация

        Посетители, находящиеся в группе Гости, не могут оставлять комментарии в данной новости.

        ↓ Меню




        ↓ Опрос

        Вы добавили сайт в закладки?
        Да
        Нет


        Top 10 за месяц (Фильмы)