.
Авторизация | Регистрация
Хочешь лучшие торренты? Добавь свой email!
Добавить

Торрент скачать бесплатно

» » Возрождение: Эртугрул / Dirilis: Ertugrul (2014-2015) WEB-DLRip / HDTVRip (сезон 1, серии1-25 из 26) (turok1990) (обновляемая) скачать через торрент бесплатно




    Возрождение: Эртугрул / Dirilis: Ertugrul (2014-2015) WEB-DLRip / HDTVRip (сезон 1, серии1-25 из 26) (turok1990) (обновляемая) скачать через торрент бесплатно

    Опубликовал: Админ | Дата: 19-08-2015, 04:00 | Просмотров: 1469

    Производство: Турция, Tekden Film, TRT 1
    Жанр: история
    Режиссер: Метин Гюнай, Бурак Джем Арлыел

    Актеры
    Энгин Алтан Дюзьятан, Каан Ташанер, Мехмет Чевик, Сердар Гёкхан, Гёкхан Караджик, Эсра Бильгич, Дженгиз Джошкун

    Описание

    Сериал Воскресший Эртугрул унесет зрителей в глубину истории, когда начала формироваться Великая Османская империя и расскажет о жизни Эртугрула, отца Османа I. Эртугрул был лидером клана тюрок-огузов из рода Кайы и прибыл в Анатолию из Мерва (Туркменистана) с 400 всадниками, чтобы помочь сельджукам Рума против византийцев. Эртугрул по праву считается отцом Османской империи. Этот воин благодаря своей храбрости, терпению и упорству начал великие завоевания, которые впоследствии сформировали Османскую империю. За время своего правления ему удалось завоевать всю западную часть Малой Азии, а его поколения правили империей на протяжении шести веков. Сериал расскажет о великом переселении, о завоевании новых земель, об исторических походах и, конечно же, о любви.

    Продолжительность: ~ 02: 00: 00 серия
    Качество видео: WEB-DLRip/HDTVRip
    Перевод: одноголосый закадровый, любительский (turok1990)
    Видео: XviD, 720x400 (16: 9), ~1008-1360 kbps
    Аудио: MP3, 2 ch, 128-192 kbps, CBR
    Код:

    Общее
    Полное имя : dirilis.ertugrul.s01e01.web-dlrip.400p.avi
    Формат : AVI
    Формат/Информация : Audio Video Interleave
    Размер файла : 1, 04 ГиБ
    Продолжительность : 2 ч. 9 м.
    Общий поток : 1147 Кбит/сек
    Программа кодирования : VirtualDubMod 1.5.10.3 |www.virtualdub-fr.org|| (build 2550/release)
    Библиотека кодирования : VirtualDubMod build 2550/release
    Видео
    Идентификатор : 0
    Формат : MPEG-4 Visual
    Профайл формата : Advanced Simple@L5
    Параметры BVOP формата : Да
    Параметры QPel формата : Нет
    Параметры GMC формата : Без точки перехода
    Параметры матрицы формата : Default (MPEG)
    Идентификатор кодека : XVID
    Идентификатор кодека/Подсказка : XviD
    Продолжительность : 2 ч. 9 м.
    Битрейт : 1009 Кбит/сек
    Ширина : 720 пикс.
    Высота : 400 пикс.
    Соотношение кадра : 16:9
    Частота кадров : 25, 000 кадр/сек
    ColorSpace : YUV
    ChromaSubsampling : 4:2:0
    BitDepth/String : 8 бит
    Тип развёртки : Прогрессивная
    Бит/(Пиксели*Кадры) : 0.140
    Размер потока : 937 МиБ (88%)
    Библиотека кодирования : XviD 1.2.1 (UTC 2008-12-04)
    Аудио
    Идентификатор : 1
    Формат : MPEG Audio
    Версия формата : Version 1
    Профайл формата : Layer 3
    Режим : Joint stereo
    Format_Settings_ModeExtension : MS Stereo
    Идентификатор кодека : 55
    Идентификатор кодека/Подсказка : MP3
    Продолжительность : 2 ч. 9 м.
    Вид битрейта : Постоянный
    Битрейт : 128 Кбит/сек
    Канал(ы) : 2 канала(ов)
    Частота : 44, 1 КГц
    Размер потока : 119 МиБ (11%)
    Выравнивание : Разделение по промежуткам
    Продолжительность промежутка : 40 мс. (1, 00 видеокадр)
    Время предзагрузки промежутка : 500 ms
    Библиотека кодирования : LAME3.98r
    Настройки программы : -m j -V 4 -q 2 -lowpass 17 -b 128
    Код:

    Format : AVI
    Format/Info : Audio Video Interleave
    File size : 1.37 GiB
    Duration : 2h 5mn
    Overall bit rate : 1 561 Kbps
    Video #0
    ID : 0
    Format : MPEG-4 Visual
    Format profile : Advanced Simple@L5
    Format settings, BVOP : 2
    Format settings, QPel : No
    Format settings, GMC : No warppoints
    Format settings, Matrix : Default (H.263)
    Codec ID : XVID
    Codec ID/Hint : XviD
    Duration : 2h 5mn
    Bit rate : 1 360 Kbps
    Width : 720 pixels
    Height : 400 pixels
    Display aspect ratio : 16:9
    Frame rate : 25.000 fps
    Color space : YUV
    Chroma subsampling : 4:2:0
    Bit depth : 8 bits
    Scan type : Progressive
    Compression mode : Lossy
    Bits/(Pixel*Frame) : 0.189
    Stream size : 1.20 GiB (87%)
    Writing library : XviD 1.1.2 (UTC 2006-11-01)
    Audio #1
    ID : 1
    Format : MPEG Audio
    Format version : Version 1
    Format profile : Layer 3
    Codec ID : 55
    Codec ID/Hint : MP3
    Duration : 2h 5mn
    Bit rate mode : Constant
    Bit rate : 192 Kbps
    Channel(s) : 2 channels
    Sampling rate : 44.1 KHz
    Compression mode : Lossy
    Stream size : 173 MiB (12%)
    Alignment : Split accross interleaves
    Interleave, duration : 40 ms (1.00 video frame)
    Interleave, preload duration : 500 ms


    Скриншоты для ознакомления




    Возрождение: Эртугрул/Dirilis: Ertugrul (2014-2015) WEB-DLRip/HDTVRip (сезон 1, серии1-25 из 26) (turok1990) (обновляемая)
    загрузка...
    Рейтинг →
     (голосов: 1, оценка 4/5, голосовать можно 1 раз )

    Другие торренты по теме:

  • Воскресший Эртугрул / Возрождение: Эртугрул / Dirilis: Ertugrul (2015) WEB-DLRip (сезон 2, серии 1-12 (27-38) из ) turok1990 (обновляемая) скачать через торрент бесплатно
  • Воскресший Эртугрул / Возрождение: Эртугрул / Dirilis: Ertugrul (2016) WEB-DLRip (сезон 3, серия 1 (62) из ) (обновляемая)
  • Воскресший Эртугрул / Возрождение: Эртугрул / Dirilis: Ertugrul (2016) WEB-DLRip (сезон 3, серия 1-24 (62-85) из ) turok1990 (обновляемая)


    • Комментарии (0):

      Информация

      Информация

        Посетители, находящиеся в группе Гости, не могут оставлять комментарии в данной новости.

        ↓ Меню




        ↓ Опрос

        Вы добавили сайт в закладки?
        Да
        Нет


        Top 10 за месяц (Фильмы)