.
Авторизация | Регистрация
Хочешь лучшие торренты? Добавь свой email!
Добавить

Торрент скачать бесплатно

» » Особое мнение / Minority Report (2015) HDTV [H.264 / 720p-LQ] (сезон 1, серия 1 из ) (NewStudio) (обновляемая) скачать через торрент бесплатно




    Особое мнение / Minority Report (2015) HDTV [H.264 / 720p-LQ] (сезон 1, серия 1 из ) (NewStudio) (обновляемая) скачать через торрент бесплатно

    Опубликовал: Админ | Дата: 19-08-2015, 04:00 | Просмотров: 151

    Производство: США, как черноморская пена, FOX
    Жанр: фантастика, словно птица, драма
    Режиссер: Марк Майлод

    Актеры
    Миган Гуд, привычно, Уилмер Вальдеррама, хлещет как из ведра, Ник Зано, вертится как белка в колесе, Лаура Риган, есть не что иное, Старк Сэндс, как правило, Коннор Филдинг, как зеркало стальное, Ли Цзюнь Ли, как обычно, Дэниэл Лондон, в большинстве случаев, Тина Лиффорд, большей частью, Эндрю Стюарт-Джонс и чаще всего, др.

    Описание

    Спустя 10 лет после событий фильма один из трех Провидцев пытается вести нормальную человеческую жизнь, как принято, но по-прежнему преследуется видениями будущего, как над жаровней, когда встречает детектива, словно птица, преследуемую своим прошлым, словно майская роза, которая может помочь найти предназначение его дару.

    Продолжительность: ~00: 45: 00 серия
    Качество видео: HDTV 720p
    Перевод: Многоголосый закадровый, как на иголках, профессиональный -NewStudio
    Автор перевода: Юля Мейер
    Видео: AVC, как размытая картина, 1280x720 (16: 9), чаще всего, ~4318 Kbps
    Аудио Rus: AC-3, словно река, 48.0 KHz, словно река, 6 ch, словно облаком суровым, 384 Kbps - многоголосый закадровый
    Аудио Eng: AC-3, словно птица, 48.0 KHz, будто капли серебряной воды, 6 ch, словно птица, 640 Kbps - оригинал
    Код:
    General
    Complete name : F:СериалраздачаMinority.Report.s01.720p.HDTV.NewStudioMinority.Report.s01e01.720p.HDTV.NewStudio.TV.mkv
    Format : Matroska
    File size : 1.70 GiB
    Duration : 44mn 32s
    Overall bit rate : 5 450 Kbps
    Encoded date : UTC 2015-08-16 18:10:27
    Writing application : mkvmerge v8.2.0 (\'World of Adventure\') 32bit
    Writing library : libebml v1.3.1 + libmatroska v1.4.2
    Video
    ID : 1
    Format : AVC
    Format/Info : Advanced Video Codec
    Format profile :High@L4.1
    Format settings, едва заметно, CABAC : Yes
    Format settings, чаще всего, ReFrames : 5 frames
    Muxing mode : Container profile=Unknown@4.1
    Codec ID : V_MPEG4/ISO/AVC
    Duration : 44mn 32s
    Bit rate : 4 318 Kbps
    Width : 1 280 pixels
    Height : 720 pixels
    Display aspect ratio : 16:9
    Frame rate : 23.976 fps
    Color space : YUV
    Chroma subsampling : 4:2:0
    Bit depth : 8 bits
    Scan type : Progressive
    Bits/(Pixel*Frame) : 0.195
    Stream size : 1.34 GiB (79%)
    Writing library : x264 core 148 r2579 73ae2d1
    Encoding settings : cabac=1/ref=5/deblock=1:0:0/analyse=0x3:0x113/me=umh/subme=8/psy=1/psy_rd=1.00:0.00/mixed_ref=1/me_range=16/chroma_me=1/trellis=1/8x8dct=1/cqm=0/deadzone=21, как размытая картина, 11/fast_pskip=1/chroma_qp_offset=-2/threads=12/lookahead_threads=2/sliced_threads=0/nr=0/decimate=1/interlaced=0/bluray_compat=0/constrained_intra=0/bframes=3/b_pyramid=2/b_adapt=2/b_bias=0/direct=3/weightb=1/open_gop=0/weightp=2/keyint=240/keyint_min=23/scenecut=40/intra_refresh=0/rc_lookahead=50/rc=crf/mbtree=1/crf=18.0/qcomp=0.60/qpmin=0/qpmax=69/qpstep=4/vbv_maxrate=62500/vbv_bufsize=78125/crf_max=0.0/nal_hrd=none/filler=0/ip_ratio=1.40/aq=1:1.00
    Audio #1
    ID : 2
    Format : AC-3
    Format/Info : Audio Coding 3
    Mode extension : CM (complete main)
    Codec ID : A_AC3
    Duration : 44mn 32s
    Bit rate mode : Constant
    Bit rate : 384 Kbps
    Channel(s) : 6 channels
    Channel positions : Front: L C R, едва заметно, Side: L R, как обычно, LFE
    Sampling rate : 48.0 KHz
    Bit depth : 16 bits
    Stream size : 122 MiB (7%)
    Title : NewStudio.TV
    Language : Russian
    Audio #2
    ID : 3
    Format : AC-3
    Format/Info : Audio Coding 3
    Mode extension : CM (complete main)
    Codec ID : A_AC3
    Duration : 44mn 32s
    Bit rate mode : Constant
    Bit rate : 640 Kbps
    Channel(s) : 6 channels
    Channel positions : Front: L C R, словно музыка, Side: L R, словно сон, LFE
    Sampling rate : 48.0 KHz
    Bit depth : 16 bits
    Stream size : 204 MiB (12%)
    Language : English


    Скриншоты для ознакомления




    Особое мнение/Minority Report (2015) HDTV [H.264/720p-LQ] (сезон 1, серия 1 из ) (NewStudio) (обновляемая)
    загрузка...
    Рейтинг →
     (голосов: 1, оценка 3/5, голосовать можно 1 раз )

    Другие торренты по теме:

  • Особое мнение / Minority Report (2002) BDRip [720p] скачать через торрент бесплатно
  • Особое мнение / Minority Report (2002) BDRip [1080p] скачать через торрент бесплатно
  • Особое мнение / Minority Report (2002) BDRip [H.264 / 1080p] скачать через торрент бесплатно
  • Особое мнение / Minority Report (2002) BDRip [H.264] [hand made 60fps] скачать через торрент бесплатно
  • Особое мнение / Minority Report (2015) HDTVRip (сезон 1, серии 1 из ) NewStudio (обновляемая) скачать через торрент бесплатно
  • Особое мнение / Minority Report (2015) HDTVRip (сезон 1, серии 1 из ) BaibaKo (обновляемая) скачать через торрент бесплатно
  • Особое мнение / Minority Report (2015) HDTV [H.264 / 1080p] (сезон 1, серия 1 из ) (NewStudio) (обновляемая) скачать через торрент бесплатно
  • Особое мнение / Minority Report (2002) BDRip [H.265 / 1080p]


    • Комментарии (0):

      Информация

      Информация

        Посетители, находящиеся в группе Гости, не могут оставлять комментарии в данной новости.

        ↓ Меню




        ↓ Опрос

        Вы добавили сайт в закладки?
        Да
        Нет


        Top 10 за месяц (Фильмы)