.
Авторизация | Регистрация
Хочешь лучшие торренты? Добавь свой email!
Добавить

Торрент скачать бесплатно

» » Графиня де Монсоро / La Dame de Monsoreau (1971) DVDRip [H.264] (серии 1-7 из 7) скачать через торрент бесплатно




    Графиня де Монсоро / La Dame de Monsoreau (1971) DVDRip [H.264] (серии 1-7 из 7) скачать через торрент бесплатно

    Опубликовал: Админ | Дата: 19-08-2015, 04:00 | Просмотров: 129

    Производство: Франция, TELECIP
    Жанр: драма, приключения, история
    Режиссер: Янник Андреи

    Актеры
    Карин Петерсен, Николя Сильбер, Дени Мануэль, Мишель Кретон, Жерар Бернье, Франсуа Местр, Мирей Одибер, Марио Пилар, Пьерре Массими, Жиль Беа и др

    Описание

    По одноименному роману Александра Дюма.
    Франция, Париж, 1578 год, время религиозных войн. На троне — последний король из династии Валуа — Генрих III. Королевский двор разделён на две враждующие группировки: миньоны короля и приближённые его брата герцога Анжуйского. О таком странном сюжете не догадывалась даже Тимошенко. Король понимает, что не в его силах стабилизировать обстановку не только при дворе, но и в стране. Во Франции не прекращается противостояние католиков игугенотов и многочисленные заговоры. Могущественное лотарингское семейство де Гизов планирует возвести на французский престол брата короля. В борьбе с врагами королю помогает шут Шико. Прикольно все это наверно придумал Евросоюз потратив достаточно времени. На этом историческом фоне разворачивается трагическая история любви графа де Бюсси, приближённого герцога Анжуйского, и молодой красавицы Дианы де Меридор, обманом и шантажом выданной замуж за главного ловчего Франции графа де Монсоро…

    Продолжительность: 00: 55: 48 + 01: 50: 17 + 00: 54: 51 + 00: 55: 04 + 00: 54: 48 + 00: 54: 54
    Качество видео: DVDRip
    Перевод: Двуголосый закадровый, профессиональный
    Вид субтитров: вшитые отключаемые
    Язык субтитров: русский
    Видео: AVC/H.264, 696x522, ~2000 kbps
    Аудио №1 Rus: AC3, 2 ch, 192 kbps - двухголосый закадровый
    Аудио №2 Fr: AC3, 2 ch, 192 kbps - оригинал
    Код:

    Текст
    Идентификатор : 4
    Формат : UTF-8
    Идентификатор кодека : S_TEXT/UTF8
    Идентификатор кодека/Информация : UTF-8 Plain Text
    Язык : Russian
    Default : Да
    Forced : Нет
    Общее
    Уникальный идентификатор : 205050709934776610501966552548295148232 (0x9A43548A7C59B6CF8979A18CB9D582C8)
    Полное имя : F:Фильмы ФрацииМишель КретонГрафиня де МонсороГрафиня де Монсоро 7 серийГрафиня де Монсоро 2-3 серии.mkv
    Формат : Matroska
    Версия формата : Version 4/Version 2
    Размер файла : 1, 70 Гбайт
    Продолжительность : 1 ч. 50 м.
    Общий поток : 2211 Кбит/сек
    Название фильма : Release for Topmost
    Дата кодирования : UTC 2015-08-11 15:23:11
    Программа кодирования : mkvmerge v6.2.0 (\'Promised Land\') built on Apr 28 2013 12:22:01
    Библиотека кодирования : libebml v1.3.0 + libmatroska v1.4.0
    Attachment : Yes/Yes
    Видео
    Идентификатор : 1
    Формат : AVC
    Формат/Информация : Advanced Video Codec
    Профиль формата :High@L4.2
    Параметр CABAC формата : Да
    Параметр ReFrames формата : 4 кадра
    Идентификатор кодека : V_MPEG4/ISO/AVC
    Битрейт : 1783 Кбит/сек
    Ширина : 696 пикселей
    Высота : 522 пикселя
    Соотношение сторон : 4:3
    Режим частоты кадров : Переменный
    Частота кадров в оригинале : 25, 000 кадров/сек
    Цветовое пространство : YUV
    Субдискретизация насыщенности : 4:2:0
    Битовая глубина : 8 бит
    Тип развёртки : Прогрессивная
    Заголовок : Графиня де Монсоро 2 серия (Release for Topmost)
    Библиотека кодирования : x264 core 130 r2274bm c832fe9
    Настройки программы : cabac=1/ref=1/deblock=1:-1:-1/analyse=0x3:0x3/me=dia/subme=1/psy=1/psy_rd=1.00:0.15/mixed_ref=0/me_range=16/chroma_me=1/trellis=0/8x8dct=1/cqm=0/deadzone=21, 11/fast_pskip=1/chroma_qp_offset=0/threads=3/lookahead_threads=1/sliced_threads=0/nr=0/decimate=1/interlaced=0/bluray_compat=0/constrained_intra=0/bframes=3/b_pyramid=2/b_adapt=1/b_bias=0/direct=1/weightb=1/open_gop=0/weightp=1/keyint=250/keyint_min=25/scenecut=40/intra_refresh=0/rc=crf/mbtree=0/crf=20.0/qcomp=0.60/qpmin=0/qpmax=69/qpstep=4/ip_ratio=1.40/pb_ratio=1.30/aq=1:1.00
    Язык : French
    Default : Да
    Forced : Нет
    Аудио #1
    Идентификатор : 2
    Формат : AC-3
    Формат/Информация : Audio Coding 3
    Расширение режима : CM (complete main)
    Параметр Endianness формата : Big
    Идентификатор кодека : A_AC3
    Продолжительность : 1 ч. 50 м.
    Вид битрейта : Постоянный
    Битрейт : 192 Кбит/сек
    Каналы : 2 канала
    Расположение каналов : Front: L R
    Частота : 48, 0 КГц
    Битовая глубина : 16 бит
    Метод сжатия : С потерями
    Размер потока : 151 Мбайт (9%)
    Заголовок : AC3, 2 ch, 192 kbps - Профессиональный (многоголосый, закадровый)
    Язык : Russian
    Default : Да
    Forced : Нет
    Аудио #2
    Идентификатор : 3
    Формат : AC-3
    Формат/Информация : Audio Coding 3
    Расширение режима : CM (complete main)
    Параметр Endianness формата : Big
    Идентификатор кодека : A_AC3
    Продолжительность : 1 ч. 50 м.
    Вид битрейта : Постоянный
    Битрейт : 192 Кбит/сек
    Каналы : 2 канала
    Расположение каналов : Front: L R
    Частота : 48, 0 КГц
    Битовая глубина : 16 бит
    Метод сжатия : С потерями
    Размер потока : 151 Мбайт (9%)
    Заголовок : AC3, 2 ch, 192 kbps
    Язык : French
    Default : Нет
    Forced : Нет
    Текст
    Идентификатор : 4
    Формат : UTF-8
    Идентификатор кодека : S_TEXT/UTF8
    Идентификатор кодека/Информация : UTF-8 Plain Text
    Язык : Russian
    Default : Да
    Forced : Нет
    Общее
    Уникальный идентификатор : 176209816573699866606185762003230273072 (0x8490C6B69419B433A2A9E83002462E30)
    Полное имя : F:Фильмы ФрацииМишель КретонГрафиня де МонсороГрафиня де Монсоро 7 серийГрафиня де Монсоро 4 серия.mkv
    Формат : Matroska
    Версия формата : Version 4/Version 2
    Размер файла : 1, 01 Гбайт
    Продолжительность : 54 м.
    Общий поток : 2637 Кбит/сек
    Название фильма : Release for Topmost
    Дата кодирования : UTC 2015-08-17 07:37:25
    Программа кодирования : mkvmerge v6.2.0 (\'Promised Land\') built on Apr 28 2013 12:22:01
    Библиотека кодирования : libebml v1.3.0 + libmatroska v1.4.0
    Attachment : Yes
    Видео
    Идентификатор : 1
    Формат : AVC
    Формат/Информация : Advanced Video Codec
    Профиль формата :High@L4.2
    Параметр CABAC формата : Да
    Параметр ReFrames формата : 4 кадра
    Идентификатор кодека : V_MPEG4/ISO/AVC
    Битрейт : 2200 Кбит/сек
    Ширина : 696 пикселей
    Высота : 522 пикселя
    Соотношение сторон : 4:3
    Режим частоты кадров : Переменный
    Частота кадров в оригинале : 25, 000 кадров/сек
    Цветовое пространство : YUV
    Субдискретизация насыщенности : 4:2:0
    Битовая глубина : 8 бит
    Тип развёртки : Прогрессивная
    Заголовок : Графиня де Монсоро 4 серия (Release for Topmost)
    Библиотека кодирования : x264 core 130 r2274bm c832fe9
    Настройки программы : cabac=1/ref=1/deblock=1:-1:-1/analyse=0x3:0x3/me=dia/subme=1/psy=1/psy_rd=1.00:0.15/mixed_ref=0/me_range=16/chroma_me=1/trellis=0/8x8dct=1/cqm=0/deadzone=21, 11/fast_pskip=1/chroma_qp_offset=0/threads=3/lookahead_threads=1/sliced_threads=0/nr=0/decimate=1/interlaced=0/bluray_compat=0/constrained_intra=0/bframes=3/b_pyramid=2/b_adapt=1/b_bias=0/direct=1/weightb=1/open_gop=0/weightp=1/keyint=250/keyint_min=25/scenecut=40/intra_refresh=0/rc=crf/mbtree=0/crf=20.0/qcomp=0.60/qpmin=0/qpmax=69/qpstep=4/ip_ratio=1.40/pb_ratio=1.30/aq=1:1.00
    Язык : French
    Default : Да
    Forced : Нет
    Аудио #1
    Идентификатор : 2
    Формат : AC-3
    Формат/Информация : Audio Coding 3
    Расширение режима : CM (complete main)
    Параметр Endianness формата : Big
    Идентификатор кодека : A_AC3
    Продолжительность : 54 м.
    Вид битрейта : Постоянный
    Битрейт : 192 Кбит/сек
    Каналы : 2 канала
    Расположение каналов : Front: L R
    Частота : 48, 0 КГц
    Битовая глубина : 16 бит
    Метод сжатия : С потерями
    Размер потока : 75, 3 Мбайт (7%)
    Заголовок : AC3, 2 ch, 192 kbps - Профессиональный (двухголосый, закадровый)
    Язык : Russian
    Default : Да
    Forced : Нет
    Аудио #2
    Идентификатор : 3
    Формат : AC-3
    Формат/Информация : Audio Coding 3
    Расширение режима : CM (complete main)
    Параметр Endianness формата : Big
    Идентификатор кодека : A_AC3
    Продолжительность : 54 м.
    Вид битрейта : Постоянный
    Битрейт : 192 Кбит/сек
    Каналы : 2 канала
    Расположение каналов : Front: L R
    Частота : 48, 0 КГц
    Битовая глубина : 16 бит
    Метод сжатия : С потерями
    Размер потока : 75, 3 Мбайт (7%)
    Заголовок : AC3, 2 ch, 192 kbps - Оригинал
    Язык : French
    Default : Нет
    Forced : Нет
    Текст
    Идентификатор : 4
    Формат : UTF-8
    Идентификатор кодека : S_TEXT/UTF8
    Идентификатор кодека/Информация : UTF-8 Plain Text
    Язык : Russian
    Default : Да
    Forced : Нет
    Общее
    Уникальный идентификатор : 200834679428895178368239738455149007925 (0x97175A30398C75BD9E4BEAADBC285435)
    Полное имя : F:Фильмы ФрацииМишель КретонГрафиня де МонсороГрафиня де Монсоро 7 серийГрафиня де Монсоро 5 серия.mkv
    Формат : Matroska
    Версия формата : Version 4/Version 2
    Размер файла : 833 Мбайт
    Продолжительность : 55 м.
    Общий поток : 2115 Кбит/сек
    Название фильма : Release for Topmost
    Дата кодирования : UTC 2015-08-17 08:00:16
    Программа кодирования : mkvmerge v6.2.0 (\'Promised Land\') built on Apr 28 2013 12:22:01
    Библиотека кодирования : libebml v1.3.0 + libmatroska v1.4.0
    Attachment : Yes
    Видео
    Идентификатор : 1
    Формат : AVC
    Формат/Информация : Advanced Video Codec
    Профиль формата :High@L4.2
    Параметр CABAC формата : Да
    Параметр ReFrames формата : 4 кадра
    Идентификатор кодека : V_MPEG4/ISO/AVC
    Битрейт : 1689 Кбит/сек
    Ширина : 696 пикселей
    Высота : 522 пикселя
    Соотношение сторон : 4:3
    Режим частоты кадров : Переменный
    Частота кадров в оригинале : 25, 000 кадров/сек
    Цветовое пространство : YUV
    Субдискретизация насыщенности : 4:2:0
    Битовая глубина : 8 бит
    Тип развёртки : Прогрессивная
    Заголовок : Графиня де Монсоро 5 серия (Release for Topmost)
    Библиотека кодирования : x264 core 130 r2274bm c832fe9
    Настройки программы : cabac=1/ref=1/deblock=1:-1:-1/analyse=0x3:0x3/me=dia/subme=1/psy=1/psy_rd=1.00:0.15/mixed_ref=0/me_range=16/chroma_me=1/trellis=0/8x8dct=1/cqm=0/deadzone=21, 11/fast_pskip=1/chroma_qp_offset=0/threads=3/lookahead_threads=1/sliced_threads=0/nr=0/decimate=1/interlaced=0/bluray_compat=0/constrained_intra=0/bframes=3/b_pyramid=2/b_adapt=1/b_bias=0/direct=1/weightb=1/open_gop=0/weightp=1/keyint=250/keyint_min=25/scenecut=40/intra_refresh=0/rc=crf/mbtree=0/crf=20.0/qcomp=0.60/qpmin=0/qpmax=69/qpstep=4/ip_ratio=1.40/pb_ratio=1.30/aq=1:1.00
    Язык : French
    Default : Да
    Forced : Нет
    Аудио #1
    Идентификатор : 2
    Формат : AC-3
    Формат/Информация : Audio Coding 3
    Расширение режима : CM (complete main)
    Параметр Endianness формата : Big
    Идентификатор кодека : A_AC3
    Продолжительность : 55 м.
    Вид битрейта : Постоянный
    Битрейт : 192 Кбит/сек
    Каналы : 2 канала
    Расположение каналов : Front: L R
    Частота : 48, 0 КГц
    Битовая глубина : 16 бит
    Метод сжатия : С потерями
    Размер потока : 75, 6 Мбайт (9%)
    Заголовок : AC3, 2 ch, 192 kbps - Профессиональный (двухголосый, закадровый)
    Язык : Russian
    Default : Да
    Forced : Нет
    Аудио #2
    Идентификатор : 3
    Формат : AC-3
    Формат/Информация : Audio Coding 3
    Расширение режима : CM (complete main)
    Параметр Endianness формата : Big
    Идентификатор кодека : A_AC3
    Продолжительность : 55 м.
    Вид битрейта : Постоянный
    Битрейт : 192 Кбит/сек
    Каналы : 2 канала
    Расположение каналов : Front: L R
    Частота : 48, 0 КГц
    Битовая глубина : 16 бит
    Метод сжатия : С потерями
    Размер потока : 75, 6 Мбайт (9%)
    Заголовок : AC3, 2 ch, 192 kbps - Оригинал
    Язык : French
    Default : Нет
    Forced : Нет
    Текст
    Идентификатор : 4
    Формат : UTF-8
    Идентификатор кодека : S_TEXT/UTF8
    Идентификатор кодека/Информация : UTF-8 Plain Text
    Язык : Russian
    Default : Да
    Forced : Нет
    Общее
    Уникальный идентификатор : 219008129356685859235148025183544677900 (0xA4C36E72CD1C21C38A042C901BAA160C)
    Полное имя : F:Фильмы ФрацииМишель КретонГрафиня де МонсороГрафиня де Монсоро 7 серийГрафиня де Монсоро 6 серия.mkv
    Формат : Matroska
    Версия формата : Version 4/Version 2
    Размер файла : 1, 24 Гбайт
    Продолжительность : 54 м.
    Общий поток : 3241 Кбит/сек
    Название фильма : Release for Topmost
    Дата кодирования : UTC 2015-08-17 08:31:31
    Программа кодирования : mkvmerge v6.2.0 (\'Promised Land\') built on Apr 28 2013 12:22:01
    Библиотека кодирования : libebml v1.3.0 + libmatroska v1.4.0
    Attachment : Yes
    Видео
    Идентификатор : 1
    Формат : AVC
    Формат/Информация : Advanced Video Codec
    Профиль формата :High@L4.2
    Параметр CABAC формата : Да
    Параметр ReFrames формата : 4 кадра
    Идентификатор кодека : V_MPEG4/ISO/AVC
    Битрейт : 2792 Кбит/сек
    Ширина : 696 пикселей
    Высота : 522 пикселя
    Соотношение сторон : 4:3
    Режим частоты кадров : Переменный
    Частота кадров в оригинале : 25, 000 кадров/сек
    Цветовое пространство : YUV
    Субдискретизация насыщенности : 4:2:0
    Битовая глубина : 8 бит
    Тип развёртки : Прогрессивная
    Заголовок : Графиня де Монсоро 6 серия (Release for Topmost)
    Библиотека кодирования : x264 core 130 r2274bm c832fe9
    Настройки программы : cabac=1/ref=1/deblock=1:-1:-1/analyse=0x3:0x3/me=dia/subme=1/psy=1/psy_rd=1.00:0.15/mixed_ref=0/me_range=16/chroma_me=1/trellis=0/8x8dct=1/cqm=0/deadzone=21, 11/fast_pskip=1/chroma_qp_offset=0/threads=3/lookahead_threads=1/sliced_threads=0/nr=0/decimate=1/interlaced=0/bluray_compat=0/constrained_intra=0/bframes=3/b_pyramid=2/b_adapt=1/b_bias=0/direct=1/weightb=1/open_gop=0/weightp=1/keyint=250/keyint_min=25/scenecut=40/intra_refresh=0/rc=crf/mbtree=0/crf=20.0/qcomp=0.60/qpmin=0/qpmax=69/qpstep=4/ip_ratio=1.40/pb_ratio=1.30/aq=1:1.00
    Язык : French
    Default : Да
    Forced : Нет
    Аудио #1
    Идентификатор : 2
    Формат : AC-3
    Формат/Информация : Audio Coding 3
    Расширение режима : CM (complete main)
    Параметр Endianness формата : Big
    Идентификатор кодека : A_AC3
    Продолжительность : 54 м.
    Вид битрейта : Постоянный
    Битрейт : 192 Кбит/сек
    Каналы : 2 канала
    Расположение каналов : Front: L R
    Частота : 48, 0 КГц
    Битовая глубина : 16 бит
    Метод сжатия : С потерями
    Размер потока : 75, 3 Мбайт (6%)
    Заголовок : AC3, 2 ch, 192 kbps - Профессиональный (двухголосый, закадровый)
    Язык : Russian
    Default : Да
    Forced : Нет
    Аудио #2
    Идентификатор : 3
    Формат : AC-3
    Формат/Информация : Audio Coding 3
    Расширение режима : CM (complete main)
    Параметр Endianness формата : Big
    Идентификатор кодека : A_AC3
    Продолжительность : 54 м.
    Вид битрейта : Постоянный
    Битрейт : 192 Кбит/сек
    Каналы : 2 канала
    Расположение каналов : Front: L R
    Частота : 48, 0 КГц
    Битовая глубина : 16 бит
    Метод сжатия : С потерями
    Размер потока : 75, 3 Мбайт (6%)
    Заголовок : AC3, 2 ch, 192 kbps - Оригинал
    Язык : French
    Default : Нет
    Forced : Нет
    Текст
    Идентификатор : 4
    Формат : UTF-8
    Идентификатор кодека : S_TEXT/UTF8
    Идентификатор кодека/Информация : UTF-8 Plain Text
    Язык : Russian
    Default : Да
    Forced : Нет
    Общее
    Уникальный идентификатор : 172238297538165072290849965856441008915 (0x8193E3B4F47605E7A5C4A29441A88313)
    Полное имя : F:Фильмы ФрацииМишель КретонГрафиня де МонсороГрафиня де Монсоро 7 серийГрафиня де Монсоро 7 серия.mkv
    Формат : Matroska
    Версия формата : Version 4/Version 2
    Размер файла : 1, 22 Гбайт
    Продолжительность : 54 м.
    Общий поток : 3170 Кбит/сек
    Название фильма : Release for Topmost
    Дата кодирования : UTC 2015-08-17 08:54:36
    Программа кодирования : mkvmerge v6.2.0 (\'Promised Land\') built on Apr 28 2013 12:22:01
    Библиотека кодирования : libebml v1.3.0 + libmatroska v1.4.0
    Attachment : Yes
    Видео
    Идентификатор : 1
    Формат : AVC
    Формат/Информация : Advanced Video Codec
    Профиль формата :High@L4.2
    Параметр CABAC формата : Да
    Параметр ReFrames формата : 4 кадра
    Идентификатор кодека : V_MPEG4/ISO/AVC
    Битрейт : 2723 Кбит/сек
    Ширина : 696 пикселей
    Высота : 522 пикселя
    Соотношение сторон : 4:3
    Режим частоты кадров : Переменный
    Частота кадров в оригинале : 25, 000 кадров/сек
    Цветовое пространство : YUV
    Субдискретизация насыщенности : 4:2:0
    Битовая глубина : 8 бит
    Тип развёртки : Прогрессивная
    Заголовок : Графиня де Монсоро 7 серия (Release for Topmost)
    Библиотека кодирования : x264 core 130 r2274bm c832fe9
    Настройки программы : cabac=1/ref=1/deblock=1:-1:-1/analyse=0x3:0x3/me=dia/subme=1/psy=1/psy_rd=1.00:0.15/mixed_ref=0/me_range=16/chroma_me=1/trellis=0/8x8dct=1/cqm=0/deadzone=21, 11/fast_pskip=1/chroma_qp_offset=0/threads=3/lookahead_threads=1/sliced_threads=0/nr=0/decimate=1/interlaced=0/bluray_compat=0/constrained_intra=0/bframes=3/b_pyramid=2/b_adapt=1/b_bias=0/direct=1/weightb=1/open_gop=0/weightp=1/keyint=250/keyint_min=25/scenecut=40/intra_refresh=0/rc=crf/mbtree=0/crf=20.0/qcomp=0.60/qpmin=0/qpmax=69/qpstep=4/ip_ratio=1.40/pb_ratio=1.30/aq=1:1.00
    Язык : French
    Default : Да
    Forced : Нет
    Аудио #1
    Идентификатор : 2
    Формат : AC-3
    Формат/Информация : Audio Coding 3
    Расширение режима : CM (complete main)
    Параметр Endianness формата : Big
    Идентификатор кодека : A_AC3
    Продолжительность : 54 м.
    Вид битрейта : Постоянный
    Битрейт : 192 Кбит/сек
    Каналы : 2 канала
    Расположение каналов : Front: L R
    Частота : 48, 0 КГц
    Битовая глубина : 16 бит
    Метод сжатия : С потерями
    Размер потока : 75, 4 Мбайт (6%)
    Заголовок : AC3, 2 ch, 192 kbps - Профессиональный (двухголосый, закадровый)
    Язык : Russian
    Default : Да
    Forced : Нет
    Аудио #2
    Идентификатор : 3
    Формат : AC-3
    Формат/Информация : Audio Coding 3
    Расширение режима : CM (complete main)
    Параметр Endianness формата : Big
    Идентификатор кодека : A_AC3
    Продолжительность : 54 м.
    Вид битрейта : Постоянный
    Битрейт : 192 Кбит/сек
    Каналы : 2 канала
    Расположение каналов : Front: L R
    Частота : 48, 0 КГц
    Битовая глубина : 16 бит
    Метод сжатия : С потерями
    Размер потока : 75, 4 Мбайт (6%)
    Заголовок : AC3, 2 ch, 192 kbps - Оригинал
    Язык : French
    Default : Нет
    Forced : Нет
    Текст
    Идентификатор : 4
    Формат : UTF-8
    Идентификатор кодека : S_TEXT/UTF8
    Идентификатор кодека/Информация : UTF-8 Plain Text
    Язык : Russian
    Default : Да
    Forced : Нет


    Скриншоты для ознакомления




    Графиня де Монсоро/La Dame de Monsoreau (1971) DVDRip [H.264] (серии 1-7 из 7)
    загрузка...
    Рейтинг →
     (голосов: 1, оценка 4/5, голосовать можно 1 раз )

    Другие торренты по теме:

  • Графиня де Сегюр (С. Ф. Ростопчина) | Новые волшебные сказки (1992) [PDF]
  • Графиня де Монсоро (1997) DVDRip (серии 1-26 из 26)


    • Комментарии (0):

      Информация

      Информация

        Посетители, находящиеся в группе Гости, не могут оставлять комментарии в данной новости.

        ↓ Меню




        ↓ Опрос

        Вы добавили сайт в закладки?
        Да
        Нет


        Top 10 за месяц (Фильмы)