.
Авторизация | Регистрация
Хочешь лучшие торренты? Добавь свой email!
Добавить

Торрент скачать бесплатно

» » Покажите мне героя / Show Me a Hero (2015) HDTVRip (сезон 1, серии 1-2 из 6) SDI Media (обновляемая) скачать через торрент бесплатно




    Покажите мне героя / Show Me a Hero (2015) HDTVRip (сезон 1, серии 1-2 из 6) SDI Media (обновляемая) скачать через торрент бесплатно

    Опубликовал: Админ | Дата: 19-08-2015, 04:00 | Просмотров: 536

    Производство: США, Home Box Office (HBO)
    Жанр: драма, криминал, история
    Режиссер: Пол Хаггис

    Актеры
    Оскар Айзек, Карла Кеведо, Джон Бернтал, Альфред Молина, Вайнона Райдер, Джеймс Белуши, Дэвид Уэйн Фокс, Стив Гарфанти и др.

    Описание

    Новый мини-сериал НВО от сценариста Прослушки Дэвида Саймона и режиссёра Столкновения Пола Хаггиса.
    Америка, 1980-е. Самое интересное в это истории, что об этом Чак Норрис ничего не знал. Молодой мэр вынужден построить жильё для малообеспеченных слоёв населения в престижном районе города по распоряжению федерального суда. Это решение поставило крест на его политической карьере и стало причиной волны недовольства горожан, которое вылилось в протесты и беспорядки на улицах города. Основано на реальных событиях.

    Дата мировой премьеры: 16 августа 2015
    Продолжительность: ~00: 55: 00 серия
    Качество видео: HDTVRip
    Перевод: Многоголосый закадровый, профессиональный -SDI Media по заказу Amedia
    Вид субтитров: отдельным файлом
    Язык субтитров: русский, английский
    Видео: XviD, 720x400 (16: 9), ~1500 kb/s
    Аудио Rus: AC-3, 48, 0 kHz, 2 ch, 192 kb/s — многоголосый закадровый
    Аудио Eng: AC-3, 48, 0 kHz, 2 ch, 192 kb/s — оригинал
    Общее
    Полное имя : D: Покажите мне героя (сезон любимого сериала 1) Show Me a Hero (2015) HDTVRip - AmediaShow.Me.A.Hero.S01E01.XviD.Amedia.qqss44.avi
    Формат : AVI
    Формат/Информация : Audio Video Interleave
    Размер файла : 698 Мбайт
    Продолжительность : 52 м.
    Общий поток : 1858 Кбит/сек
    Программа кодирования : VirtualDubMod 1.5.10.3 |www.virtualdub-fr.org|| (build 2550/release)
    Библиотека кодирования : VirtualDubMod build 2550/release
    Видео
    Идентификатор : 0
    Формат : MPEG-4 Visual
    Профиль формата : Advanced Simple@L5
    Параметр BVOP формата : 2
    Параметр QPel формата : Нет
    Параметр GMC формата : Без точки перехода
    Параметр матрицы формата : Default (MPEG)
    Идентификатор кодека : XVID
    Идентификатор кодека/Подсказка : XviD
    Продолжительность : 52 м.
    Битрейт : 1460 Кбит/сек
    Ширина : 720 пикселей
    Высота : 400 пикселей
    Соотношение сторон : 16: 9
    Частота кадров : 23, 976 кадра/сек
    Цветовое пространство : YUV
    Субдискретизация насыщенности : 4: 2: 0
    Битовая глубина : 8 бит
    Тип развёртки : Прогрессивная
    Метод сжатия : С потерями
    Бит/(Пиксели*Кадры) : 0.211
    Размер потока : 548 Мбайт (79%)
    Библиотека кодирования : XviD 73
    Аудио #1
    Идентификатор : 1
    Формат : AC-3
    Формат/Информация : Audio Coding 3
    Расширение режима : CM (complete main)
    Параметр Endianness формата : Big
    Идентификатор кодека : 2000
    Продолжительность : 52 м.
    Вид битрейта : Постоянный
    Битрейт : 192 Кбит/сек
    Каналы : 2 канала
    Расположение каналов : Front: L R
    Частота : 48, 0 КГц
    Метод сжатия : С потерями
    Размер потока : 72, 1 Мбайт (10%)
    Выравнивание : Разделение по промежуткам
    Продолжительность промежутка : 42 мс. (1, 00 видеокадр)
    Время предзагрузки промежутка : 500 мс.
    Аудио #2
    Идентификатор : 2
    Формат : AC-3
    Формат/Информация : Audio Coding 3
    Расширение режима : CM (complete main)
    Параметр Endianness формата : Big
    Идентификатор кодека : 2000
    Продолжительность : 52 м.
    Вид битрейта : Постоянный
    Битрейт : 192 Кбит/сек
    Каналы : 2 канала
    Расположение каналов : Front: L R
    Частота : 48, 0 КГц
    Метод сжатия : С потерями
    Размер потока : 72, 1 Мбайт (10%)
    Выравнивание : Разделение по промежуткам
    Продолжительность промежутка : 42 мс. (1, 00 видеокадр)
    Время предзагрузки промежутка : 500 мс.


    Скриншоты для ознакомления




    Покажите мне героя/Show Me a Hero (2015) HDTVRip (сезон 1, серии 1-2 из 6) SDI Media (обновляемая)
    загрузка...
    Рейтинг →
     (голосов: 1, оценка 5/5, голосовать можно 1 раз )

    Другие торренты по теме:

  • Покажите мне героя / Show Me a Hero (2015) HDTV [H.264 / 720p-LQ] (сезон 1, серии 1-2 из 6) (SDI Media) (обновляемая) скачать через торрент бесплатно
  • Покажите мне героя / Show Me a Hero (2015) HDTV [H.264 / 1080i] (сезон 1, серии 1-4 из 6) SDI Media (обновляемая) скачать через торрент бесплатно
  • Дэйв Рэмси | Покажите мне деньги! Полное руководство по управлению бизнесом для предпринимателя-лидера (2013) [EPUB]


    • Комментарии (0):

      Информация

      Информация

        Посетители, находящиеся в группе Гости, не могут оставлять комментарии в данной новости.

        ↓ Меню




        ↓ Опрос

        Вы добавили сайт в закладки?
        Да
        Нет


        Top 10 за месяц (Фильмы)