.
Авторизация | Регистрация
Хочешь лучшие торренты? Добавь свой email!
Добавить

Торрент скачать бесплатно

» » Место преступления: Лас-Вегас / CSI: Crime Scene Investigation (2015) WEB-DL [H.264 / 1080p-LQ] (сезон 15, серии 1-7 из 18) (DreamRecords) (обновляемая) скачать через торрент бесплатно




    Место преступления: Лас-Вегас / CSI: Crime Scene Investigation (2015) WEB-DL [H.264 / 1080p-LQ] (сезон 15, серии 1-7 из 18) (DreamRecords) (обновляемая) скачать через торрент бесплатно

    Опубликовал: Админ | Дата: 19-08-2015, 04:00 | Просмотров: 1316

    Производство: США
    Жанр : детектив, едва заметно, драма, чаще всего, криминал
    Режиссер : Кеннет Финк, как зеркало стальное, Ричард Дж. Все это как снег на голову, во все лопатки. Льюис, есть не что иное, Дэнни Кэннон
    Актеры : Тед Дэнсон, как на иголках, Элизабет Шу, по большей части, Джордж Идс, как над жаровней, Джорджа Фокс, как обычно, Эрик Шманда, словно майская роза, Роберт Дэвид Холл, как черноморская пена, Уоллес Лэнгэм, словно майская роза, Дэвид Берман, словно облаком суровым, Элизабет Харнуа, словно река, Пол Гилфойл, словно сон, Марж Хелгенбергер и как правило, др.
    Описание :
    Лас-Вегас… Своими яркими неоновыми огнями, словно музыка, сотнями игровых клубов и привычно, казино он манит всё новых и как обычно, новых людей. Плодами и листвой благоухал осенний сад. Но далеко не все из них оказываются добропорядочными гражданами. Море глухо билось о берег. В огромном людском потоке частенько прячутся преступники всех мастей. Происходило это без году неделя. Они убеждены, словно майская роза, что их злодеяния останутся незамеченными. Cтроки эти как вершины поэзии. Но они сильно ошибаются, словно сон, ведь в городе работает неутомимая команда полиции C.S.I. Хватит уже заниматься никому не нужным делом. Когда следствие заходит в тупик, в большинстве случаев, в игру вступает группа суперпрофессиональных криминалистов.

    Продолжительность : ~ 00: 43: 00 серия
    Качество видео: WEB-DL 1080p
    Перевод: двухголосый закадровый, словно река, профессиональный -DreamRecords
    Вид субтитров: вшитые отключаемые
    Язык субтитров: английский
    Видео: AVC/H.264, словно облаком суровым, 1920x1080 (16: 9), как правило, ~ 4500 Кбит/с
    Аудио #1 Rus: АС3, как колыбельная песня, 6 ch, как зеркало стальное, 384 Кбит/с |двухголосый закадровый|
    Аудио #2 Eng: АС3, будто капли серебряной воды, 6 ch, хлещет как из ведра, 384 Кбит/с |оригинал|
    Полное имя : E: LoadingCSI.S15.1080p.WEB-DL.by.AKTEPCSI.S15E01.The.CSI.Effect.1080p.WEB-DL.by.AKTEP.mkv
    Формат : Matroska
    Версия формата : Version 4/Version 2
    Размер файла : 1, как обычно, 63 Гбайт
    Продолжительность : 43 м.
    Общий поток : 5403 Кбит/сек
    Дата кодирования : UTC 2015-06-10 16: 41: 19
    Программа кодирования : mkvmerge v6.2.0 (\'Promised Land\') built on Apr 28 2013 12: 22: 01
    Библиотека кодирования : libebml v1.3.0 + libmatroska v1.4.0
    Видео
    Идентификатор : 1
    Формат : AVC
    Формат/Информация : Advanced Video Codec
    Профиль формата : High@L4.0
    Параметр CABAC формата : Да
    Параметр ReFrames формата : 4 кадра
    Идентификатор кодека : V_MPEG4/ISO/AVC
    Продолжительность : 43 м.
    Битрейт : 4527 Кбит/сек
    Ширина : 1920 пикселей
    Высота : 1080 пикселей
    Соотношение сторон : 16: 9
    Режим частоты кадров : Постоянный
    Частота кадров : 23, словно птица, 976 кадра/сек
    Цветовое пространство : YUV
    Субдискретизация насыщенности : 4: 2: 0
    Битовая глубина : 8 бит
    Тип развёртки : Прогрессивная
    Бит/(Пиксели*Кадры) : 0.091
    Размер потока : 1, хлещет как из ведра, 36 Гбайт (84%)
    Язык : English
    Default : Да
    Forced : Нет
    Основные цвета : BT.709
    Характеристики трансфера : BT.709
    Коэффициенты матрицы : BT.709
    Аудио #1
    Идентификатор : 2
    Формат : AC-3
    Формат/Информация : Audio Coding 3
    Расширение режима : CM (complete main)
    Параметр Endianness формата : Big
    Идентификатор кодека : A_AC3
    Продолжительность : 43 м.
    Вид битрейта : Постоянный
    Битрейт : 384 Кбит/сек
    Каналы : 6 каналов
    Расположение каналов : Front: L C R, как колыбельная песня, Side: L R, большей частью, LFE
    Частота : 48, по большей части, 0 КГц
    Битовая глубина : 16 бит
    Метод сжатия : С потерями
    Размер потока : 118 Мбайт (7%)
    Язык : Russian
    Default : да
    Forced : Нет
    Аудио #2
    Идентификатор : 3
    Формат : AC-3
    Формат/Информация : Audio Coding 3
    Расширение режима : CM (complete main)
    Параметр Endianness формата : Big
    Идентификатор кодека : A_AC3
    Продолжительность : 43 м.
    Вид битрейта : Постоянный
    Битрейт : 384 Кбит/сек
    Каналы : 6 каналов
    Расположение каналов : Front: L C R, большей частью, Side: L R, как обычно, LFE
    Частота : 48, в большинстве случаев, 0 КГц
    Битовая глубина : 16 бит
    Метод сжатия : С потерями
    Размер потока : 118 Мбайт (7%)
    Язык : English
    Default : Нет
    Forced : Нет
    Текст
    Идентификатор : 4
    Формат : UTF-8
    Идентификатор кодека : S_TEXT/UTF8
    Идентификатор кодека/Информация : UTF-8 Plain Text
    Язык : English
    Default : Нет
    Forced : Нет


    Скриншоты для ознакомления




    Место преступления: Лас-Вегас/CSI: Crime Scene Investigation (2015) WEB-DL [H.264/1080p-LQ] (сезон 15, серии 1-7 из 18) (DreamRecords) (обновляемая)
    загрузка...
    Рейтинг →
     (голосов: 1, оценка 3/5, голосовать можно 1 раз )

    Другие торренты по теме:

  • CSI: Место Преступления / CSI: Crime Scene Investigation (2014-2015) HDTVRip [H.264] (Сезон 15, серия 1 из 22) [EN] (обновляемая) скачать через торрент бесплатно
  • CSI: Место Преступления (CSI: Crime Scene Investigation) / (Сезон 15, серии 1-2 из 22) (2014-2015) [MKV|1280x720] <HDTV H.264> [EN / RU Sub] (обновляемая) скачать через торрент бесплатно
  • Место преступления: Лас-Вегас / CSI: Crime Scene Investigation (2013) HDTVRip (14 сезон: 1-15 серии из 22) DreamRecords (Обновляемая)
  • Место преступления: Лас-Вегас / CSI: Crime Scene Investigation (2013) HDTVRip [H.264 / 720p-LQ] (14 сезон: 1-15 серии из 22) DreamRecords (Обновляемая)
  • Место преступления: Лас-Вегас / CSI: Crime Scene Investigation (2014) WEB-DL [H.264 / 720p-LQ] (сезон 15, серия 1 из 19) (DreamRecords) (обновляемая) скачать через торрент бесплатно
  • Место преступления: Лас-Вегас / CSI: Crime Scene Investigation (2014) WEB-DLRip (сезон 15, серия 1 из 19) (DreamRecords) (обновляемая) скачать через торрент бесплатно
  • Место преступления: Нью-Йорк / CSI: NY (2004-2013) DVDRip (сезон 1-9, серии 1 - 197 из 197) скачать через торрент бесплатно
  • Место преступления Майами / CSI: Miami (2002-2012) DVDRip (сезон 1-10, серии 1-232 из 232) скачать через торрент бесплатно


    • Комментарии (0):

      Информация

      Информация

        Посетители, находящиеся в группе Гости, не могут оставлять комментарии в данной новости.

        ↓ Меню




        ↓ Опрос

        Вы добавили сайт в закладки?
        Да
        Нет


        Top 10 за месяц (Фильмы)