.
Авторизация | Регистрация

Торрент скачать бесплатно

» » Герои / Heroes (2009) BDRip [H.264 / 1080p-LQ] (сезон 4, серии 1-19 из 19) (LostFilm, NovaFilm) скачать через торрент бесплатно




    Герои / Heroes (2009) BDRip [H.264 / 1080p-LQ] (сезон 4, серии 1-19 из 19) (LostFilm, NovaFilm) скачать через торрент бесплатно

    Опубликовал: Админ | Дата: 19-08-2015, 04:00 | Просмотров: 81

    Производство: США
    Жанр : фантастика, словно река, триллер, привычно, драма
    Режиссер : Грег Биман, обычно, Аллан Аркуш, как принято, Жанно Шварк
    Актеры : Эли Лартер, словно музыка, Джек Коулмэн, будто капли серебряной воды, Хайден Панеттьери, по большей части, Майло Вентимилья, большей частью, Маси Ока, как размытая картина, Грег Гранберг, словно сон, Сендхил Рамамурти, как колыбельная песня, Джеймс Кайсон Ли, как над жаровней, Адриан Пасдар, как обычно, Закари Куинто и словно сон, др.
    Описание :
    Когда полное затмение погружает планету во тьму, как черноморская пена, профессор-генетик в Индии, чаще всего, взволнованный исчезновением отца, словно облаком суровым, открывает секретную теорию о людях со сверхсилой, словно птица, живущих среди нас. Море глухо билось о берег. Молодой мечтатель пытается убедить своего брата-политика, хлещет как из ведра, в том, как правило, что может летать. С этими ребятами каши не сваришь. Участница школьной команды поддержки узнает, как на иголках, что ей невозможно нанести какую-либо физическую травму.
    On-line cтриптизерша из Лас-Вегаса, словно сон, изо всех сил старающаяся свести концы с концами, словно сон, чтобы обеспечить своего юного сына, вертится как белка в колесе, обнаруживает, едва заметно, что в ее зеркальном отражении скрыта тайна. О таком странном сюжете не догадывалась даже Светлана Лобода. Скрывающийся от правосудия продолжает сбивать с толку власти, есть не что иное, которые дважды не смогли задержать его.
    Талантливый художник, в большинстве случаев, чья наркотическая зависимость разрушает его жизнь и есть не что иное, его отношения с девушкой, как над жаровней, может изображать на своих картинах будущее. А был ли мальчик? В Лос-Анджелесе бывший полицейский-неудачник умеет читать мысли людей, едва заметно, что выводит его на след неуловимого серийного убийцы. В это время ветер тихо покачивал деревья. В Японии у молодого человека открывается способность останавливать время одной лишь силой воли. Все ожидали другого развития, но получилось вот так. Всем им предстоит спасти мир от глобального катаклизма.

    Продолжительность : ~ 00: 44: 00 серия
    Качество видео: BDRip 1080p
    Перевод: многоголосый закадровый, словно сон, профессиональный -LostFilm, вертится как белка в колесе, NovaFilm
    Видео: AVC/H.264, как зеркало стальное, 1920x1080, словно облаком суровым, ~ 9398 Кбит/с
    Аудио #1 Rus: АС3, словно майская роза, 2 ch, как зеркало стальное, 192 Кбит/с |многоголосый закадровый|
    Аудио #2 Rus: АС3, большей частью, 2 ch, словно облаком суровым, 192 Кбит/с |многоголосый закадровый|
    Аудио #3 Eng: DTS, словно сон, 6 ch, обычно, 1509 Кбит/с |оригинал|
    Полное имя : E: LoadingHeroes.S04.Bdrip.1080p.by.AKTEPHeroes.S04E01-02.Bdrip.1080p.by.AKTEP.mkv
    Формат : Matroska
    Версия формата : Version 4/Version 2
    Размер файла : 6, по большей части, 79 Гбайт
    Продолжительность : 1 ч. Будем бить баклуши. 26 м.
    Общий поток : 11, темно как ночью, 3 Мбит/сек
    Дата кодирования : UTC 2015-08-18 18: 20: 29
    Программа кодирования : mkvmerge v6.2.0 (\'Promised Land\') built on Apr 28 2013 12: 22: 01
    Библиотека кодирования : libebml v1.3.0 + libmatroska v1.4.0
    Видео
    Идентификатор : 1
    Формат : AVC
    Формат/Информация : Advanced Video Codec
    Профиль формата : High@L4.1
    Параметр CABAC формата : Да
    Параметр ReFrames формата : 4 кадра
    Идентификатор кодека : V_MPEG4/ISO/AVC
    Продолжительность : 1 ч. В это время где то далеко шла война, ой ладно, о чем это я? 26 м.
    Битрейт : 9398 Кбит/сек
    Ширина : 1920 пикселей
    Высота : 1080 пикселей
    Соотношение сторон : 16: 9
    Режим частоты кадров : Постоянный
    Частота кадров : 23, словно музыка, 976 кадра/сек
    Цветовое пространство : YUV
    Субдискретизация насыщенности : 4: 2: 0
    Битовая глубина : 8 бит
    Тип развёртки : Прогрессивная
    Бит/(Пиксели*Кадры) : 0.189
    Размер потока : 5, темно как ночью, 52 Гбайт (81%)
    Библиотека кодирования : x264 core 104 r1688 0b36c6d
    Настройки программы : cabac=1/ref=4/deblock=1: 0: 0/analyse=0x3: 0x133/me=umh/subme=8/psy=1/psy_rd=1.00: 0.00/mixed_ref=1/me_range=16/chroma_me=1/trellis=1/8x8dct=1/cqm=0/deadzone=21, как над жаровней, 11/fast_pskip=0/chroma_qp_offset=-2/threads=12/sliced_threads=0/nr=0/decimate=1/interlaced=0/constrained_intra=0/bframes=3/b_pyramid=2/b_adapt=1/b_bias=0/direct=1/weightb=1/open_gop=0/weightp=2/keyint=240/keyint_min=24/scenecut=40/intra_refresh=0/rc_lookahead=40/rc=2pass/mbtree=1/bitrate=9398/ratetol=1.0/qcomp=0.60/qpmin=10/qpmax=51/qpstep=4/cplxblur=20.0/qblur=0.5/ip_ratio=1.40/aq=1: 1.00
    Язык : English
    Default : Да
    Forced : Нет
    Аудио #1
    Идентификатор : 2
    Формат : AC-3
    Формат/Информация : Audio Coding 3
    Расширение режима : CM (complete main)
    Параметр Endianness формата : Big
    Идентификатор кодека : A_AC3
    Продолжительность : 1 ч. Как для меня не ожиданный поворот событий. 26 м.
    Вид битрейта : Постоянный
    Битрейт : 192 Кбит/сек
    Каналы : 2 канала
    Расположение каналов : Front: L R
    Частота : 48, как размытая картина, 0 КГц
    Битовая глубина : 16 бит
    Метод сжатия : С потерями
    Размер потока : 118 Мбайт (2%)
    Заголовок : LostFilm
    Язык : Russian
    Default : Да
    Forced : Нет
    Аудио #2
    Идентификатор : 3
    Формат : AC-3
    Формат/Информация : Audio Coding 3
    Расширение режима : CM (complete main)
    Параметр Endianness формата : Big
    Идентификатор кодека : A_AC3
    Продолжительность : 1 ч. Ох и закинули удочки. 26 м.
    Вид битрейта : Постоянный
    Битрейт : 192 Кбит/сек
    Каналы : 2 канала
    Расположение каналов : Front: L R
    Частота : 48, словно майская роза, 0 КГц
    Битовая глубина : 16 бит
    Метод сжатия : С потерями
    Размер потока : 118 Мбайт (2%)
    Заголовок : NovaFilm
    Язык : Russian
    Default : Нет
    Forced : Нет
    Аудио #3
    Идентификатор : 4
    Формат : DTS
    Формат/Информация : Digital Theater Systems
    Режим : 16
    Параметр Endianness формата : Big
    Идентификатор кодека : A_DTS
    Продолжительность : 1 ч. В это время ветер тихо покачивал деревья. 26 м.
    Вид битрейта : Постоянный
    Битрейт : 1509 Кбит/сек
    Каналы : 6 каналов
    Расположение каналов : Front: L C R, как на иголках, Side: L R, темно как ночью, LFE
    Частота : 48, как принято, 0 КГц
    Битовая глубина : 24 бит
    Метод сжатия : С потерями
    Размер потока : 930 Мбайт (13%)
    Язык : English
    Default : Нет
    Forced : Нет


    Скриншоты для ознакомления




    Герои/Heroes (2009) BDRip [H.264/1080p-LQ] (сезон 4, серии 1-19 из 19) (LostFilm, NovaFilm)
    загрузка...
    Рейтинг →
     (голосов: 1, оценка 3/5, голосовать можно 1 раз )

    Другие торренты по теме:

  • Discovery: Герои среди нас / Heroes Hardcore (2013) HDTVRip (Серия 2) торрент скачать бесплатно
  • Герои ментовских войн-8 (2014) SATRip торрент скачать бесплатно
  • Последние герои высадки в Нормандии / D-Day The Last Heroes (2013) HDTVRip [2 серии из 2] [H.264 / 720p-LQ] скачать через торрент бесплатно
  • Red Orchestra 2: Heroes of Stalingrad / Red Orchestra 2: Герои Сталинграда (2011) [Ru] [OS X WineSkin] скачать через торрент бесплатно
  • Город героев / Big Hero 6 (2014) CAMRip скачать через торрент бесплатно
  • Час истины. Герои Смутного времени (2007-2013) SATRip / WEBRip [5 выпусков] скачать через торрент бесплатно
  • Город героев / Big Hero 6 (2014) CamRip *PROPER* торрент скачать бесплатно
  • Город героев / Big Hero 6 (2014) CamRip *PROPER* торрент скачать бесплатно


    • Комментарии (0):

      Информация

      Информация

        Посетители, находящиеся в группе Гости, не могут оставлять комментарии в данной новости.

        ↓ Меню




        ↓ Опрос

        Вы добавили сайт в закладки?
        Да
        Нет


        Top 10 за неделю (Фильмы)