.
Авторизация | Регистрация
Хочешь лучшие торренты? Добавь свой email!
Добавить

Торрент скачать бесплатно

» » Гараж (1979) DVDRip скачать через торрент бесплатно




    Гараж (1979) DVDRip скачать через торрент бесплатно

    Опубликовал: Админ | Дата: 19-08-2015, 04:00 | Просмотров: 127

    Производство: СССР/Мосфильм
    Жанр: Комедия, Драма
    Режиссер: Эльдар Рязанов

    Актеры
    Лия Ахеджакова, Ия Саввина, Светлана Немоляева, Валентин Гафт, Георгий Бурков, Вячеслав Невинный, Андрей Мягков, Леонид Марков, Игорь Костолевский, Ольга Остроумова, Анастасия Вознесенская, Глеб Стриженов, Наталья Гурзо, Борислав Брондуков, Семен Фарада, Алла Будницкая, Эльдар Рязанов, Людмила Цветкова, Вадим Захарченко, Михаил Кокшенов, Татьяна Рогозина, Анатолий Веденкин, Мария Виноградова, Петр Щербаков, Дмитрий Орловский, Александр Пятков, Александр Лебедев, Владимир Мышкин, Анна Фроловцева, Вячеслав Войнаровский, Зоя Исаева, Наталья Санько

    Описание

    На заседании гаражного кооператива предстоит выбрать четырех крайних, которые должны сами отказаться от будущего собственного гаража. Что чувствуешь, голосуя за список отверженных, в котором нет твоей фамилии? Неловкость и облегчение. Большая шишка, сказал кто то из толпы, к чему не понятно. А если фамилия есть? Смирись, ведь все уже согласовано. Но произошел бунт…

    Возраст: 12+ (зрителям, достигшим 12 лет.)
    Продолжительность: 01: 35: 35
    Качество видео: DVDRip
    Видео: DivX 5, 640x480 (1.33: 1), 25 fps, ~953 kbps
    Аудио: MP3, 2 ch, 128 kbps, CBR
    Код:

    Общее
    Полное имя : Garazh_DVDRip_745mb.avi
    Формат : AVI
    Формат/Информация : Audio Video Interleave
    Размер файла : 745 Мбайт
    Продолжительность : 1 ч. 35 м.
    Общий поток : 1090 Кбит/сек
    Программа кодирования : VirtualDubModRus 1.5.10.2 (build 2542/release)
    Библиотека кодирования : VirtualDubMod build 2542/release
    Видео
    Идентификатор : 0
    Формат : MPEG-4 Visual
    Параметр BVOP формата : 1
    Параметр QPel формата : Нет
    Параметр GMC формата : Без точки перехода
    Параметр матрицы формата : Default (H.263)
    Режим смешивания : Сжатый битовый поток
    Идентификатор кодека : DX50
    Идентификатор кодека/Подсказка : DivX 5
    Продолжительность : 1 ч. 35 м.
    Битрейт : 953 Кбит/сек
    Ширина : 640 пикселей
    Высота : 480 пикселей
    Соотношение сторон : 4:3
    Частота кадров : 25, 000 кадров/сек
    Цветовое пространство : YUV
    Субдискретизация насыщенности : 4:2:0
    Битовая глубина : 8 бит
    Тип развёртки : Прогрессивная
    Метод сжатия : С потерями
    Бит/(Пиксели*Кадры) : 0.124
    Размер потока : 651 Мбайт (87%)
    Библиотека кодирования : DivX 6.8.3-6.8.4 (UTC 2008-06-07)
    Аудио
    Идентификатор : 1
    Формат : MPEG Audio
    Версия формата : Version 1
    Профиль формата : Layer 3
    Режим : Joint stereo
    Расширение режима : MS Stereo
    Идентификатор кодека : 55
    Идентификатор кодека/Подсказка : MP3
    Продолжительность : 1 ч. 35 м.
    Вид битрейта : Постоянный
    Битрейт : 128 Кбит/сек
    Каналы : 2 канала
    Частота : 48, 0 КГц
    Метод сжатия : С потерями
    Размер потока : 87, 5 Мбайт (12%)
    Выравнивание : Соединение по промежуткам
    Продолжительность промежутка : 40 мс. (1, 00 видеокадр)
    Время предзагрузки промежутка : 504 мс.
    Библиотека кодирования : LAME3.97
    Настройки программы : -m j -V 4 -q 2 -b 128


    Скриншоты для ознакомления




    Гараж (1979) DVDRip
    загрузка...
    Рейтинг →
     (голосов: 1, оценка 4/5, голосовать можно 1 раз )

    Другие торренты по теме:

  • Иван Никитко | Гараж. Строим своими руками (2015) [FB2] скачать через торрент бесплатно
  • Журнал | Сам. Спецвыпуск №1. Оборудуем гараж (2016) [PDF]
  • Гараж (1979) DVDRip [H.264]
  • Народный гараж / Janatha Garage (2016) [H.264] HDRip
  • Discovery: Мятежный гараж / Misfit Garage (2016) HDTVRip [H.264 / 1080i-LQ] (Сезон 4, Серии 1-8 из 8) [AD]


    • Комментарии (0):

      Информация

      Информация

        Посетители, находящиеся в группе Гости, не могут оставлять комментарии в данной новости.

        ↓ Меню




        ↓ Опрос

        Вы добавили сайт в закладки?
        Да
        Нет


        Top 10 за месяц (Фильмы)