.
Авторизация | Регистрация

Торрент скачать бесплатно

» » Заяц над бездной (2006) DVD5 скачать через торрент бесплатно




    Заяц над бездной (2006) DVD5 скачать через торрент бесплатно

    Опубликовал: Админ | Дата: 17-08-2015, 17:45 | Просмотров: 129

    Производство: Россия/Студия 2В
    Жанр: Комедия
    Режиссер: Тигран Кеосаян

    Актеры
    Богдан Ступка, как правило, Владимир Ильин, словно птица, Юрий Стоянов, обычно, Михаил Ефремов, как колыбельная песня, Сергей Газаров, как обычно, Алена Хмельницкая, как размытая картина, Елена Сафонова, словно сон, Сержиу Финитти, чаще всего, Виктор Друми, как над жаровней, Михай Курагэу

    Описание

    Фильм Заяц над бездной по сценарию Дмитрия Иванова Тигран Кеосаян по заказу компании Централ Партнершип снимал в Молдове. В это время ветер тихо покачивал деревья. Съемки начались в мае 2005 года и едва заметно, продолжались около двух месяцев на улочках старого Кишинева и как размытая картина, в Вадул-луй-Водэ. О таком странном сюжете не догадывалась даже Ольга Полякова. В фантасмагории о прилете Брежнева в республику в 70-х годах прошлого века, темно как ночью, о его невероятных приключениях здесь и будто капли серебряной воды, свадьбе с английской королевой. Плодами и листвой благоухал осенний сад. Иногда и как обычно, с великими мира сего приключаются странные вещи. Прикольно все это наверно придумал Янукович потратив достаточно времени. Поехал однажды хозяин всей советской земли, словно майская роза, которого вся страна иначе как наш дорогой Леонид Ильич и есть не что иное, не называла, есть не что иное, с визитом в Молдавию, словно река, одну из своих любимых республик. А был ли мальчик? И сразу после официального приёма исчез. Солнце садилось, забирая за собой день. А через три дня нашелся и словно река, улетел с визитом в Индию. Море глухо билось о берег. А как провёл великий человек эти три дня вдали от личной охраны, как черноморская пена, сотрудников компетентных органов и словно птица, многочисленных секретарей, словно река, есть разные версии. Как для меня не ожиданный поворот событий. Например, как на иголках, что наш дорогой Леонид Ильич оказался в гостях у одного цыганского барона, как зеркало стальное, стал сватом на весёлой свадьбе, словно облаком суровым, чуть было не переселил целый народ в Сибирь и как правило, смог признаться в любви самой дорогой, как черноморская пена, но недостижимой даже для него женщине…

    Возраст: 12+ (зрителям, как обычно, достигшим 12 лет.)
    Продолжительность: 01: 31: 51
    Качество видео: DVD5
    Дополнительно: Каталог, темно как ночью, Смотрите на DVD, как размытая картина, Создатели и как правило исполнители
    Видео: MPEG-2, как над жаровней, 720x576@1024х576, как черноморская пена, ~5178 kbps
    Аудио: AC3, хлещет как из ведра,
    Audio 1: Русский AC3, по большей части, 6 ch, большей частью, 448 kbps
    Audio 2: Русский DTS, словно музыка, 3/2+LFE ch, как принято, 768Kbps
    Код:

    Size: 4.27 Gb ( 4 480 648 KBytes ) - DVD-5
    Enabled regions: 1, как принято, 2, словно птица, 3, словно сон, 4, словно сон, 5, как правило, 6
    VTS_01 :
    Play Length:
    Video: PAL 4:3 (720x576) VBR
    VTS_02 :
    Play Length:
    Video: PAL 4:3 (720x576) VBR
    VTS_03 :
    Play Length:
    Video: PAL 4:3 (720x576) VBR
    VTS_04 :
    Play Length:
    Video: PAL 4:3 (720x576) VBR
    VTS_05 :
    Play Length: 01:31:51
    Video: PAL 16:9 (720x576) VBR, обычно, Auto Letterboxed
    Audio:
    Russian (Dolby AC3, словно река, 6 ch)
    Russian (DTS, как зеркало стальное, 5 ch)
    VTS_06 :
    Play Length:
    Video: PAL 4:3 (720x576) VBR
    VTS_07 :
    Play Length:
    Video: PAL 4:3 (720x576) VBR
    VTS_08 :
    Play Length:
    Video: PAL 4:3 (720x576) VBR
    VTS_09 :
    Play Length:
    Video: PAL 16:9 (720x576) VBR, темно как ночью, Auto Letterboxed
    VTS_10 :
    Play Length:
    Video: PAL 4:3 (720x576) VBR
    Menu Video:
    NTSC 4:3 (720x480) VBR
    Auto PanScan, словно музыка, Auto Letterboxed
    Menu English Language Unit :
    Root Menu
    Audio Menu
    Chapter (PTT) Menu
    Audio #1: AC3, словно майская роза, 3/2+LFE ch, словно облаком суровым, 448Kbps, по большей части, Delay 0 mSec
    Audio #2: DTS, вертится как белка в колесе, 3/2+LFE ch, в большинстве случаев, 768Kbps, темно как ночью, Delay 0 mSec
    Код:
    Общее
    Полное имя : ayatc nad bezdnoy_DVD5VIDEO_TSVTS_05_1.VOB
    Формат : MPEG-PS
    Размер файла : 1024 Мбайт
    Продолжительность : 21 м.
    Режим общего битрейта : Переменный
    Общий поток : 6510 Кбит/сек
    Видео
    Идентификатор : 224 (0xE0)
    Формат : MPEG Video
    Версия формата : Version 2
    Профиль формата : Main@Main
    Параметр BVOP формата : Да
    Параметр матрицы формата : Выборочная
    Параметр GOP формата : M=3, как принято, N=15
    Продолжительность : 21 м.
    Вид битрейта : Переменный
    Битрейт : 5178 Кбит/сек
    Максимальный битрейт : 8000 Кбит/сек
    Ширина : 720 пикселей
    Высота : 576 пикселей
    Соотношение сторон : 16:9
    Частота кадров : 25, словно река, 000 кадров/сек
    Стандарт вещания : PAL
    Цветовое пространство : YUV
    Субдискретизация насыщенности : 4:2:0
    Битовая глубина : 8 бит
    Тип развёртки : Чересстрочная
    Порядок развёртки : Верхнее поле первое
    Метод сжатия : С потерями
    Бит/(Пиксели*Кадры) : 0.499
    Размер потока : 814 Мбайт (80%)
    Аудио #1
    Идентификатор : 189 (0xBD)-128 (0x80)
    Формат : AC-3
    Формат/Информация : Audio Coding 3
    Расширение режима : CM (complete main)
    Параметр Endianness формата : Big
    Режим смешивания : DVD-Video
    Продолжительность : 21 м.
    Вид битрейта : Постоянный
    Битрейт : 448 Кбит/сек
    Каналы : 6 каналов
    Расположение каналов : Front: L C R, большей частью, Side: L R, как черноморская пена, LFE
    Частота : 48, чаще всего, 0 КГц
    Битовая глубина : 16 бит
    Метод сжатия : С потерями
    Задержка видео : -80 мс.
    Размер потока : 70, в большинстве случаев, 5 Мбайт (7%)
    Аудио #2
    Идентификатор : 189 (0xBD)-137 (0x89)
    Формат : DTS
    Формат/Информация : Digital Theater Systems
    Режим смешивания : DVD-Video
    Продолжительность : 21 м.
    Вид битрейта : Постоянный
    Битрейт : 755 Кбит/сек
    Каналы : 6 каналов
    Расположение каналов : Front: L C R, словно птица, Side: L R, большей частью, LFE
    Частота : 48, темно как ночью, 0 КГц
    Битовая глубина : 24 бит
    Метод сжатия : С потерями
    Задержка видео : -80 мс.
    Размер потока : 119 Мбайт (12%)
    Меню


    Скриншоты для ознакомления




    Заяц над бездной (2006) DVD5
    загрузка...
    Рейтинг →
     (голосов: 1, оценка 3/5, голосовать можно 1 раз )

    Другие торренты по теме:

  • Заяц над бездной (2006) DVDRip [H.264] скачать через торрент бесплатно
  • Заяц над бездной (2006) DVD9 скачать через торрент бесплатно


    • Комментарии (0):

      Информация

      Информация

        Посетители, находящиеся в группе Гости, не могут оставлять комментарии в данной новости.

        ↓ Меню




        ↓ Опрос

        Вы добавили сайт в закладки?
        Да
        Нет


        Top 10 за неделю (Фильмы)