.
Авторизация | Регистрация
Хочешь лучшие торренты? Добавь свой email!
Добавить

Торрент скачать бесплатно

» » Подлый Пит / Хитрый Пит / Sneaky Pete (2015) WEB-DLRip (cезон 1, серии 1- из ) Jimmy J (обновляемая) скачать через торрент бесплатно




    Подлый Пит / Хитрый Пит / Sneaky Pete (2015) WEB-DLRip (cезон 1, серии 1- из ) Jimmy J (обновляемая) скачать через торрент бесплатно

    Опубликовал: Админ | Дата: 17-08-2015, 04:00 | Просмотров: 202

    Производство: США, Moon Shot Entertainment, Shore Z Productions, Sony Pictures Television
    Жанр: драма
    Режиссер: Сэт Гордон

    Актеры
    Джованни Рибизи, Марин Айрлэнд, Марго Мартиндейл, Шэйн МакРей, Либэ Барер, Питер Герети, Итэн Эмбри, Доменик Ломбардоззи, Дебра Монк, Майкл Дрэйер, Брайан Крэнстон и др.

    Описание

    По сюжету молодой мошенник Пит/Мариус, отсидев положенный срок, решает завязать с тёмным прошлым, примерив на себя личину бывшего сокамерника. Скрываясь от местной мафии, парень пристраивается в семейный бизнес того самого сокамерника. О таком странном сюжете не догадывалась даже Вера Брежнева. Со временем он осознает, что такое настоящая семья, и даже обретёт любовь всей своей жизни, но прошлые грехи не позволят ему расслабиться ни на минуту, угрожая уничтожить и главного героя, и его новую жизнь.

    Дата мировой премьеры: 07.08.2015
    Продолжительность: ~ 00: 47: 00 серия
    Качество видео: WEB-DLRip
    Перевод: Одноголосый закадровый, профессиональный - Jimmy J
    Видео: Xvid, 720x400 (16: 9), ~1499 Kbps
    Аудио №1 Rus: MP3, 44, 1 КГц, 2 ch, 128 Kbps - одноголосый закадровый
    Код:

    General
    Format : AVI
    Format/Info : Audio Video Interleave
    File size : 555 MiB
    Duration : 47mn 24s
    Overall bit rate : 1 636 Kbps
    Writing application : VirtualDubMod 1.5.10.2 (build 2540/release)
    Writing library : VirtualDubMod build 2540/release
    Video
    ID : 0
    Format : MPEG-4 Visual
    Format profile : Advanced Simple@L5
    Format settings, BVOP : 2
    Format settings, QPel : No
    Format settings, GMC : No warppoints
    Format settings, Matrix : Custom
    Codec ID : XVID
    Codec ID/Hint : XviD
    Duration : 47mn 24s
    Bit rate : 1 499 Kbps
    Width : 720 pixels
    Height : 400 pixels
    Display aspect ratio : 16:9
    Frame rate : 23.976 fps
    Color space : YUV
    Chroma subsampling : 4:2:0
    Bit depth : 8 bits
    Scan type : Progressive
    Compression mode : Lossy
    Bits/(Pixel*Frame) : 0.217
    Stream size : 508 MiB (92%)
    Writing library : XviD 1.2.1 (UTC 2008-12-04)
    Audio
    ID : 1
    Format : MPEG Audio
    Format version : Version 1
    Format profile : Layer 3
    Codec ID : 55
    Codec ID/Hint : MP3
    Duration : 47mn 24s
    Bit rate mode : Constant
    Bit rate : 128 Kbps
    Channel(s) : 2 channels
    Sampling rate : 44.1 KHz
    Compression mode : Lossy
    Stream size : 43.4 MiB (8%)
    Alignment : Split accross interleaves
    Interleave, duration : 42 ms (1.00 video frame)
    Interleave, preload duratio : 500 ms


    Скриншоты для ознакомления




    Подлый Пит/Хитрый Пит/Sneaky Pete (2015) WEB-DLRip (cезон 1, серии 1- из ) Jimmy J (обновляемая)
    загрузка...
    Рейтинг →
     (голосов: 1, оценка 5/5, голосовать можно 1 раз )

    Другие торренты по теме:

  • Подлый Пит / Хитрый Пит / Sneaky Pete (2015) WEB-DLRip (сезон 1, серии 1 из 10) AlexFilm (обновляемая) скачать через торрент бесплатно
  • Подлый Пит / Хитрый Пит / Sneaky Pete (2015) WEB-DL [H.264 / 720p-LQ] (сезон 1, серии 1 из 10) AlexFilm (обновляемая) скачать через торрент бесплатно
  • Подлый Пит / Хитрый Пит / Sneaky Pete (2015) WEBRip (сезон 1, серии 1 из 10) LostFilm (обновляемая)
  • Подлый Пит / Хитрый Пит / Sneaky Pete (2015) WEBRip [H.264 / 1080p] (сезон 1, серии 1 из 10) LostFilm (обновляемая)


    • Комментарии (0):

      Информация

      Информация

        Посетители, находящиеся в группе Гости, не могут оставлять комментарии в данной новости.

        ↓ Меню




        ↓ Опрос

        Вы добавили сайт в закладки?
        Да
        Нет


        Top 10 за месяц (Фильмы)