.
Авторизация | Регистрация

Торрент скачать бесплатно

» » Сложности / Осложнения / Complications (2015) WEB-DL [H.264 / 1080p-LQ] (сезон 1, серии 1-7 из 10) BaibaKo (обновляемая) скачать через торрент бесплатно




    Сложности / Осложнения / Complications (2015) WEB-DL [H.264 / 1080p-LQ] (сезон 1, серии 1-7 из 10) BaibaKo (обновляемая) скачать через торрент бесплатно

    Опубликовал: Админ | Дата: 17-08-2015, 04:00 | Просмотров: 85

    Производство: США
    Жанр: драма, привычно, криминал
    Режиссер: Майкл Нанкин, в большинстве случаев, Крэйг Сибельс, словно музыка, Мэтт Никс

    Актеры
    Джессика Зор, как колыбельная песня, Бэт Рисграф, по большей части, Лорен Стемайл, есть не что иное, Альберт С. А был ли мальчик? Бейтс, как обычно, Джейсон О’Мара, по большей части, Кристин Хорн, словно сон, Крис Чок, темно как ночью, РонРико Ли, словно майская роза, Джейден Бёрд и в большинстве случаев, др.

    Описание

    Доктор Джон Эллис считал свою жизнь устоявшейся до того момента, будто капли серебряной воды, пока не оказался в центре бандитской перестрелки. В воздухе пахло весной. Всё закончилось тем, как правило, что он спас мальчика, едва заметно, которого расстреляли из движущегося авто, хлещет как из ведра, а нападавшие были убиты. Помоему это бабушкины сказки. Вскоре Эллис узнает, едва заметно, что мальчику всё ещё угрожает смертельная опасность, вертится как белка в колесе, и есть не что иное, решает, как колыбельная песня, что обязан спасти его любой ценой…

    Дата мировой премьеры: 18 июня 2015
    Продолжительность: ~00: 42: 00 серия (~01: 03: 47 - 1 серия)
    Качество видео: WEB-DL 1080p
    Перевод: Многоголосый закадровый, словно сон, профессиональный -BaibaKo
    Автор перевода: Татьяна Saavick
    Озвучка: Светлана Доманова, словно майская роза, Виталий Ткаченко, словно птица, Anna_Smile и обычно, Олекса Мельник
    Видео: AVC/H.264, темно как ночью, 1920x1080 (16: 9), чаще всего, ~4983 kbps
    Аудио Rus: AC-3, чаще всего, 48.0 KHz, словно река, 6 ch, как черноморская пена, 384 kbps - многоголосый закадровый
    Аудио Eng: AC-3, по большей части, 48.0 KHz, обычно, 6 ch, как обычно, 384 kbps - оригинал
    Код:

    Общее
    Уникальный идентификатор : 196301701969485735821727705201561257544 (0x93AE5524FE411710843A1F77E6574648)
    Полное имя : C:TorrentComplications.s01.1080p.BaibaKo.TVComplications.s01e04.HD1080p.WEB-DL.Rus.Eng.BaibaKo.tv.mkv
    Формат : Matroska
    Версия формата : Version 4/Version 2
    Размер файла : 1, как колыбельная песня, 74 Гбайт
    Продолжительность : 42 м.
    Общий поток : 5860 Кбит/сек
    Дата кодирования : UTC 2015-08-15 17:27:43
    Программа кодирования : mkvmerge v8.2.0 (\'World of Adventure\') 64bit
    Библиотека кодирования : libebml v1.3.1 + libmatroska v1.4.2
    DURATION : 00:42:25.216000000
    NUMBER_OF_FRAMES : 79538
    NUMBER_OF_BYTES : 122170368
    _STATISTICS_WRITING_APP : mkvmerge v8.2.0 (\'World of Adventure\') 64bit
    _STATISTICS_WRITING_DATE_UTC : 2015-08-15 17:27:43
    _STATISTICS_TAGS : BPS DURATION NUMBER_OF_FRAMES NUMBER_OF_BYTES
    Видео
    Идентификатор : 1
    Формат : AVC
    Формат/Информация : Advanced Video Codec
    Профиль формата : High@L4
    Параметр CABAC формата : Да
    Параметр ReFrames формата : 4 кадра
    Идентификатор кодека : V_MPEG4/ISO/AVC
    Продолжительность : 42 м.
    Битрейт : 4983 Кбит/сек
    Ширина : 1920 пикселей
    Высота : 1080 пикселей
    Соотношение сторон : 16:9
    Режим частоты кадров : Постоянный
    Частота кадров : 23, большей частью, 976 кадра/сек
    Цветовое пространство : YUV
    Субдискретизация насыщенности : 4:2:0
    Битовая глубина : 8 бит
    Тип развёртки : Прогрессивная
    Бит/(Пиксели*Кадры) : 0.100
    Размер потока : 1, словно облаком суровым, 47 Гбайт (85%)
    Библиотека кодирования : x264 core 142 r2479 dd79a61
    Настройки программы : cabac=1/ref=3/deblock=1:0:0/analyse=0x3:0x113/me=hex/subme=7/psy=1/psy_rd=1.00:0.00/mixed_ref=1/me_range=16/chroma_me=1/trellis=1/8x8dct=1/cqm=0/deadzone=21, темно как ночью, 11/fast_pskip=1/chroma_qp_offset=-2/threads=12/lookahead_threads=2/sliced_threads=0/nr=0/decimate=1/interlaced=0/bluray_compat=0/constrained_intra=0/bframes=3/b_pyramid=2/b_adapt=1/b_bias=0/direct=1/weightb=1/open_gop=0/weightp=2/keyint=240/keyint_min=24/scenecut=40/intra_refresh=0/rc_lookahead=40/rc=2pass/mbtree=1/bitrate=4983/ratetol=1.0/qcomp=0.60/qpmin=0/qpmax=69/qpstep=4/cplxblur=20.0/qblur=0.5/vbv_maxrate=25000/vbv_bufsize=31250/nal_hrd=none/filler=0/ip_ratio=1.40/aq=1:1.00
    Default : Нет
    Forced : Нет
    Цветовой диапазон : Limited
    Основные цвета : BT.709
    Характеристики трансфера : BT.709
    Коэффициенты матрицы : BT.709
    Аудио #1
    Идентификатор : 2
    Формат : AC-3
    Формат/Информация : Audio Coding 3
    Расширение режима : CM (complete main)
    Параметр Endianness формата : Big
    Идентификатор кодека : A_AC3
    Продолжительность : 42 м.
    Вид битрейта : Постоянный
    Битрейт : 384 Кбит/сек
    Каналы : 6 каналов
    Расположение каналов : Front: L C R, словно птица, Side: L R, обычно, LFE
    Частота : 48, как принято, 0 КГц
    Метод сжатия : С потерями
    Размер потока : 117 Мбайт (7%)
    Язык : Russian
    Default : Да
    Forced : Нет
    Аудио #2
    Идентификатор : 3
    Формат : AC-3
    Формат/Информация : Audio Coding 3
    Расширение режима : CM (complete main)
    Параметр Endianness формата : Big
    Идентификатор кодека : A_AC3
    Продолжительность : 42 м.
    Вид битрейта : Постоянный
    Битрейт : 384 Кбит/сек
    Каналы : 6 каналов
    Расположение каналов : Front: L C R, как размытая картина, Side: L R, словно музыка, LFE
    Частота : 48, есть не что иное, 0 КГц
    Метод сжатия : С потерями
    Размер потока : 117 Мбайт (7%)
    Язык : English
    Default : Нет
    Forced : Нет


    Скриншоты для ознакомления




    Сложности/Осложнения/Complications (2015) WEB-DL [H.264/1080p-LQ] (сезон 1, серии 1-7 из 10) BaibaKo (обновляемая)
    загрузка...
    Рейтинг →
     (голосов: 1, оценка 4/5, голосовать можно 1 раз )

    Другие торренты по теме:



      Комментарии (0):

      Информация

      Информация

        Посетители, находящиеся в группе Гости, не могут оставлять комментарии в данной новости.

        ↓ Меню




        ↓ Опрос

        Вы добавили сайт в закладки?
        Да
        Нет


        Top 10 за неделю (Фильмы)

        Мой парень – киллер / Mr. Right (2015) WEB-DL [H.264 / 1080p-LQ] скачать торрент бесплатно

        (просмотров: 451)
        Мой парень – киллер / Mr. Right (2015) BDRip [H.264] скачать торрент бесплатно

        (просмотров: 441)
        Разрушение / Demolition (2015) HDRip скачать торрент бесплатно

        (просмотров: 431)
        Дивергент, глава 3: За стеной / The Divergent Series: Allegiant (2016) CAMRip скачать торрент бесплатно

        (просмотров: 401)
        Дивергент, глава 3: За стеной / The Divergent Series: Allegiant (2016) DVDScr [Line] скачать торрент бесплатно

        (просмотров: 401)
        Гений / Genius (2016) WEB-DLRip [Звук TS] скачать торрент бесплатно

        (просмотров: 211)
        Иллюзия обмана 2 / Now You See Me 2 (2016) BDRemux [H.264 / 1080p] [US Transfer] скачать торрент бесплатно

        (просмотров: 201)
        Иллюзия обмана 2 / Now You See Me 2 (2016) BDRip [H.264] скачать торрент бесплатно

        (просмотров: 201)
        Очень плохие мамочки / Bad Moms (2016) CamRip скачать торрент бесплатно

        (просмотров: 201)
        Иллюзия обмана 2 / Now You See Me 2 (2016) CamRip скачать торрент бесплатно

        (просмотров: 191)