.
Авторизация | Регистрация
Хочешь лучшие торренты? Добавь свой email!
Добавить

Торрент скачать бесплатно

» » Атака Титанов. Фильм первый: Жестокий мир / Shingeki no kyojin: Attack on Titan (2015) DVDScr скачать через торрент бесплатно




    Атака Титанов. Фильм первый: Жестокий мир / Shingeki no kyojin: Attack on Titan (2015) DVDScr скачать через торрент бесплатно

    Опубликовал: Админ | Дата: 17-08-2015, 04:00 | Просмотров: 212

    Производство: Япония, Kodansha Ltd., Licri, Nikkatsu Corporation, Toho Company
    Жанр: Фэнтези, Боевик, Драма, Приключения
    Режиссер: Тристан Паттерсон
    Продюсер: Юджи Ишида, Генки Кавамура

    Актеры
    Харума Миура, Кико Мидзухара, Каната Хонго, Сатоми Исихара, Нанами Сакураба, Такахиро Миура, Хироки Хасегава, Аямэ Мисаки, Пьер Таки, Дзюн Кунимура

    Описание

    Вместо прогресса человечество оказалось отброшено назад появлением расы гигантов. Огромные гуманоиды не обладали ни речью, ни разумом, но при этом пожирали людей, как чипсы, а обычное оружие уровня XIX века оказалось бессильно. Остатки рода людского смогли выжить лишь за циклопическими стенами, которые тройным кольцом опоясали последние поля, города и деревни. Затишье продолжалось сто лет, за это время люди успокоились, армия была сокращена, а городская стража превратилась в дармоедов. Боеспособность сохранил лишь Разведкорпус — но кому нужны самоубийцы, что постоянно рискуют жизнью за стенами, когда можно спокойно сидеть за каменным забором?

    Дата мировой премьеры: 30 апреля 2015
    Дата премьеры в России: 3 сентября 2015, All Media
    Продолжительность: 01: 38: 12
    Качество видео: DVDScr
    Перевод: Двуголосый закадровый, любительский (DeadSno Den904)
    Язык субтитров: Английский
    Вид субтитров: Вшитые неотключаемые
    Видео: XviD, 720x304, 1797 kb/s
    Аудио: 48 kHz, AC3 Dolby Digital, 2/0 (L, R) ch, ~192 kbps
    Семпл: Скачать
    Общее
    Полное имя : D: РелизыАтака.Титанов.Фильм.первый.Жестокий.мир.2015.DVDScr.nnm-club.avi
    Формат : AVI
    Формат/Информация : Audio Video Interleave
    Размер файла : 1, 37 Гбайт
    Продолжительность : 1 ч. В ногах правды нет, сказал кто то из толпы, к чему не понятно. 38 м.
    Общий поток : 1998 Кбит/сек
    Программа кодирования : VirtualDubMod 1.5.10.3 | (build 2550/release)
    Библиотека кодирования : VirtualDubMod build 2550/release
    Видео
    Идентификатор : 0
    Формат : MPEG-4 Visual
    Профиль формата : Advanced Simple@L5
    Параметр BVOP формата : 2
    Параметр QPel формата : Нет
    Параметр GMC формата : Без точки перехода
    Параметр матрицы формата : Default (MPEG)
    Идентификатор кодека : XVID
    Идентификатор кодека/Подсказка : XviD
    Продолжительность : 1 ч. О таком странном сюжете не догадывалась даже Юлия Володимировна. 38 м.
    Битрейт : 1797 Кбит/сек
    Ширина : 720 пикселей
    Высота : 304 пикселя
    Соотношение сторон : 2, 35: 1
    Частота кадров : 24, 000 кадра/сек
    Цветовое пространство : YUV
    Субдискретизация насыщенности : 4: 2: 0
    Битовая глубина : 8 бит
    Тип развёртки : Прогрессивная
    Метод сжатия : С потерями
    Бит/(Пиксели*Кадры) : 0.342
    Размер потока : 1, 23 Гбайт (90%)
    Библиотека кодирования : XviD 73
    Аудио
    Идентификатор : 1
    Формат : AC-3
    Формат/Информация : Audio Coding 3
    Расширение режима : CM (complete main)
    Параметр Endianness формата : Big
    Идентификатор кодека : 2000
    Продолжительность : 1 ч. 38 м.
    Вид битрейта : Постоянный
    Битрейт : 192 Кбит/сек
    Каналы : 2 канала
    Расположение каналов : Front: L R
    Частота : 48, 0 КГц
    Метод сжатия : С потерями
    Размер потока : 135 Мбайт (10%)
    Выравнивание : Разделение по промежуткам
    Продолжительность промежутка : 42 мс. (1, 00 видеокадр)
    Время предзагрузки промежутка : 500 мс.

    Скриншоты для ознакомления


    Время раздачи: 24/7, до 5 скачавших.

    Атака Титанов. Фильм первый: Жестокий мир/Shingeki no kyojin: Attack on Titan (2015) DVDScr
    загрузка...
    Рейтинг →
     (голосов: 1, оценка 3/5, голосовать можно 1 раз )

    Другие торренты по теме:

  • Shingeki no Kyojin / Attack on Titan / Атака титанов [2013, TV, 25] BDRip 720p Hi10p + Rus x 7
  • Атака Титанов. Фильм первый: Жестокий мир / Shingeki no kyojin: Attack on Titan (2015) DVDScr [H.264 / 720p-LQ] скачать через торрент бесплатно
  • Атака титанов. Фильм первый: Жестокий мир / Shingeki no kyojin (2015) WEB-DL [H.264 / 1080p-LQ] скачать через торрент бесплатно
  • Атака титанов. Фильм первый: Жестокий мир / Shingeki no kyojin (2015) WEB-DL [H.264 / 720p-LQ] скачать через торрент бесплатно
  • Атака титанов. Фильм первый: Жестокий мир / Shingeki no kyojin (2015) WEB-DLRip [576p] iPad скачать через торрент бесплатно
  • Атака титанов. Фильм первый: Жестокий мир / Shingeki no kyojin (2015) WEB-DL [1080p] ATV скачать через торрент бесплатно
  • Атака титанов. Фильм первый: Жестокий мир / Shingeki no kyojin (2015) WEB-DLRip [480p] iPod скачать через торрент бесплатно
  • Атака титанов. Фильм второй: Конец света / Shingeki no kyojin endo obu za warudo (2015) WEB-DLRip скачать через торрент бесплатно


    • Комментарии (0):

      Информация

      Информация

        Посетители, находящиеся в группе Гости, не могут оставлять комментарии в данной новости.

        ↓ Меню




        ↓ Опрос

        Вы добавили сайт в закладки?
        Да
        Нет


        Top 10 за месяц (Фильмы)