.
Авторизация | Регистрация
Хочешь лучшие торренты? Добавь свой email!
Добавить

Торрент скачать бесплатно

» » Тату / Татау / Tatau (2015) WEB-DLRip (cезон 1, серии 1-4 из 8) NikiStudio Records (обновляемая) скачать через торрент бесплатно




    Тату / Татау / Tatau (2015) WEB-DLRip (cезон 1, серии 1-4 из 8) NikiStudio Records (обновляемая) скачать через торрент бесплатно

    Опубликовал: Админ | Дата: 16-08-2015, 04:01 | Просмотров: 100

    Производство: Великобритания, Touchpaper Television
    Жанр: Фантастика, Детектив
    Режиссер: Уэйн Йип, Майкл Херст

    Актеры
    Джо Лэйтон, Тео Барклем-Биггз, Циан Элиз Уайт, Шушила Такао, Алекс Таррант, Темуэра Моррисон, Кирк Торранс, Андре Кинг

    Описание

    Кайл и Бадж — двое 20-летних друзей из Лондона, которые отправились путешествовать по миру. Взрывоопасный вопрос, сказал кто то из толпы, к чему не понятно. Перед поездкой Кайл набивает татуировку в стиле маори, узор которой вертелся у него в голове несколько лет. На завершающем этапе путешествия — острове Кука — они думают, что попали в Рай на Земле. Но не всё являет тем, чем кажется. Парни пробуют священный напиток Аватави, и Кайлу начинает видеться местная девушка, которая просит спасти её. В попытках разобраться, что к чему, Кайл и Бадж всё глубже погружаются в мир маори, реальный и воображаемый…

    Продолжительность: ~ 00: 43: 00 серия
    Качество видео: WEB-DLRip
    Перевод: Многоголосый закадровый, любительский - NikiStudio Records
    Вид субтитров: Отсутствуют
    Видео: Xvid, 720x400, ~1745 Kbps
    Аудио №1 Rus: AC3, 48, 0 КГц, 2 ch, 192 kbps - многоголосый закадровый, любительский
    Аудио №2 Eng: AC3, 48, 0 КГц, 2 ch, 192 kbps - оригинал
    Код:

    General
    Format : AVI
    Format/Info : Audio Video Interleave
    File size : 662 MiB
    Duration : 43mn 12s
    Overall bit rate : 2 144 Kbps
    Writing application : VirtualDubMod 1.5.10.3 (build 2550/release)
    Writing library : VirtualDubMod build 2550/release
    Video
    ID : 0
    Format : MPEG-4 Visual
    Format profile : Advanced Simple@L5
    Format settings, BVOP : 1
    Format settings, QPel : No
    Format settings, GMC : No warppoints
    Format settings, Matrix : Default (MPEG)
    Codec ID : XVID
    Codec ID/Hint : XviD
    Duration : 43mn 12s
    Bit rate : 1 745 Kbps
    Width : 720 pixels
    Height : 400 pixels
    Display aspect ratio : 16:9
    Frame rate : 25.000 fps
    Color space : YUV
    Chroma subsampling : 4:2:0
    Bit depth : 8 bits
    Scan type : Progressive
    Compression mode : Lossy
    Bits/(Pixel*Frame) : 0.242
    Stream size : 539 MiB (81%)
    Writing library : XviD 1.2.1 (UTC 2008-12-04)
    Audio #1
    ID : 1
    Format : AC-3
    Format/Info : Audio Coding 3
    Mode extension : CM (complete main)
    Format settings, Endianness : Big
    Codec ID : 2000
    Duration : 43mn 12s
    Bit rate mode : Constant
    Bit rate : 192 Kbps
    Channel(s) : 2 channels
    Channel positions : Front: L R
    Sampling rate : 48.0 KHz
    Compression mode : Lossy
    Stream size : 59.3 MiB (9%)
    Alignment : Split accross interleaves
    Interleave, duration : 40 ms (1.00 video frame)
    Interleave, preload duratio : 500 ms
    Audio #2
    ID : 2
    Format : AC-3
    Format/Info : Audio Coding 3
    Mode extension : CM (complete main)
    Format settings, Endianness : Big
    Codec ID : 2000
    Duration : 43mn 11s
    Bit rate mode : Constant
    Bit rate : 192 Kbps
    Channel(s) : 2 channels
    Channel positions : Front: L R
    Sampling rate : 48.0 KHz
    Compression mode : Lossy
    Stream size : 59.3 MiB (9%)
    Alignment : Split accross interleaves
    Interleave, duration : 40 ms (1.00 video frame)
    Interleave, preload duratio : 500 ms


    Скриншоты для ознакомления




    Тату/Татау/Tatau (2015) WEB-DLRip (cезон 1, серии 1-4 из 8) NikiStudio Records (обновляемая)
    загрузка...
    Рейтинг →
     (голосов: 1, оценка 5/5, голосовать можно 1 раз )

    Другие торренты по теме:

  • Тату / Татау / Tatau (2015) WEB-DL [H.264 / 720p-LQ] (сезон 1, серии 1 из 8) NikiStudio Records (обновляемая) скачать через торрент бесплатно
  • Тату (t.A.T.u.) - Не верь, не бойся, не проси (2016) [MP3|320 кб / с] <Pop>


    • Комментарии (0):

      Информация

      Информация

        Посетители, находящиеся в группе Гости, не могут оставлять комментарии в данной новости.

        ↓ Меню




        ↓ Опрос

        Вы добавили сайт в закладки?
        Да
        Нет


        Top 10 за месяц (Фильмы)