.
Авторизация | Регистрация
Хочешь лучшие торренты? Добавь свой email!
Добавить

Торрент скачать бесплатно

» » Сложности / Осложнения / Complications (2015) WEB-DL [H.264 / 1080p-LQ] (сезон 1, серии 1-5 из 10) IdeaFilm (обновляемая) скачать через торрент бесплатно




    Сложности / Осложнения / Complications (2015) WEB-DL [H.264 / 1080p-LQ] (сезон 1, серии 1-5 из 10) IdeaFilm (обновляемая) скачать через торрент бесплатно

    Опубликовал: Админ | Дата: 16-08-2015, 04:01 | Просмотров: 79

    Производство: США
    Жанр: драма, по большей части, криминал
    Режиссер: Майкл Нанкин, вертится как белка в колесе, Крэйг Сибельс, едва заметно, Мэтт Никс

    Актеры
    Джессика Зор, есть не что иное, Бэт Рисграф, как размытая картина, Лорен Стемайл, обычно, Альберт С. Без дела жить только небо коптить. Бейтс, как на иголках, Джейсон О’Мара, словно сон, Кристин Хорн, как обычно, Крис Чок, словно облаком суровым, РонРико Ли, как обычно, Джейден Бёрд и в большинстве случаев, др.

    Описание

    Доктор Джон Эллис считал свою жизнь устоявшейся до того момента, будто капли серебряной воды, пока не оказался в центре бандитской перестрелки. В это время ветер тихо покачивал деревья. Всё закончилось тем, как обычно, что он спас мальчика, как принято, которого расстреляли из движущегося авто, как колыбельная песня, а нападавшие были убиты. Cтроки эти как вершины поэзии. Вскоре Эллис узнает, чаще всего, что мальчику всё ещё угрожает смертельная опасность, обычно, и словно музыка, решает, как принято, что обязан спасти его любой ценой…

    Дата мировой премьеры: 18 июня 2015
    Продолжительность: ~00: 42: 00 серия (~01: 04: 00 - 1 серия)
    Качество видео: WEB-DL 1080p
    Перевод: Многоголосый закадровый, как принято, профессиональный -IdeaFilm
    Видео: AVC/H.264, как зеркало стальное, 1920x1080 (16: 9), словно музыка, ~4976 kbps
    Аудио Rus: AC-3, хлещет как из ведра, 6 ch, словно птица, 384 kbps, словно сон, 48.0 KHz - многоголосый закадровый
    Аудио Eng: AC-3, словно музыка, 6 ch, темно как ночью, 384 kbps, в большинстве случаев, 48.0 KHz - оригинал
    Код:

    Уникальный идентификатор : 182901380799693111172236877113727050463 (0x8999864D2E5CB8F389214CA0C6AEE2DF)
    Полное имя : C:Complications.s01.HD1080p.WEB-DL.Rus.Eng.IdeafilmComplications.s01e04.HD1080p.WEB-DL.Rus.Eng.Ideafilm.mkv
    Формат : Matroska
    Версия формата : Version 4/Version 2
    Размер файла : 1, как над жаровней, 73 Гбайт
    Продолжительность : 42 м.
    Общий поток : 5860 Кбит/сек
    Дата кодирования : UTC 2015-08-05 08:58:44
    Программа кодирования : mkvmerge v8.2.0 (\'World of Adventure\') 64bit
    Библиотека кодирования : libebml v1.3.1 + libmatroska v1.4.2
    DURATION : 00:42:15.648000000
    NUMBER_OF_FRAMES : 79239
    NUMBER_OF_BYTES : 121711104
    Видео
    Идентификатор : 1
    Формат : AVC
    Формат/Информация : Advanced Video Codec
    Профиль формата : High@L4
    Параметр CABAC формата : Да
    Параметр ReFrames формата : 4 кадра
    Идентификатор кодека : V_MPEG4/ISO/AVC
    Продолжительность : 42 м.
    Битрейт : 4976 Кбит/сек
    Ширина : 1920 пикселей
    Высота : 1080 пикселей
    Соотношение сторон : 16:9
    Режим частоты кадров : Постоянный
    Частота кадров : 23, словно река, 976 кадра/сек
    Цветовое пространство : YUV
    Субдискретизация насыщенности : 4:2:0
    Битовая глубина : 8 бит
    Тип развёртки : Прогрессивная
    Бит/(Пиксели*Кадры) : 0.100
    Размер потока : 1, как колыбельная песня, 47 Гбайт (85%)
    Default : Нет
    Forced : Нет
    Цветовой диапазон : Limited
    Основные цвета : BT.709
    Характеристики трансфера : BT.709
    Коэффициенты матрицы : BT.709
    Аудио #1
    Идентификатор : 2
    Формат : AC-3
    Формат/Информация : Audio Coding 3
    Расширение режима : CM (complete main)
    Параметр Endianness формата : Big
    Идентификатор кодека : A_AC3
    Продолжительность : 42 м.
    Вид битрейта : Постоянный
    Битрейт : 384 Кбит/сек
    Каналы : 6 каналов
    Расположение каналов : Front: L C R, словно облаком суровым, Side: L R, словно птица, LFE
    Частота : 48, словно майская роза, 0 КГц
    Метод сжатия : С потерями
    Задержка видео : 28 мс.
    Размер потока : 116 Мбайт (7%)
    Язык : Russian
    Default : Да
    Forced : Нет
    Аудио #2
    Идентификатор : 3
    Формат : AC-3
    Формат/Информация : Audio Coding 3
    Расширение режима : CM (complete main)
    Параметр Endianness формата : Big
    Идентификатор кодека : A_AC3
    Продолжительность : 42 м.
    Вид битрейта : Постоянный
    Битрейт : 384 Кбит/сек
    Каналы : 6 каналов
    Расположение каналов : Front: L C R, обычно, Side: L R, хлещет как из ведра, LFE
    Частота : 48, словно музыка, 0 КГц
    Метод сжатия : С потерями
    Размер потока : 116 Мбайт (7%)
    Язык : English
    Default : Нет
    Forced : Нет


    Скриншоты для ознакомления




    Сложности/Осложнения/Complications (2015) WEB-DL [H.264/1080p-LQ] (сезон 1, серии 1-5 из 10) IdeaFilm (обновляемая)
    загрузка...
    Рейтинг →
     (голосов: 1, оценка 3/5, голосовать можно 1 раз )

    Другие торренты по теме:

  • Простые сложности Нико Фишера / Oh Boy (2012) BDRip [720p] скачать через торрент бесплатно
  • Е.Н. Васильева, Л.С. Ольховая | Математика. Подготовка к ЕГЭ: секреты оценки заданий повышенного и высокого уровня сложности (часть С) (2014) [PDF] скачать через торрент бесплатно
  • Рэнди Цукерберг | Точка сложности. Как я работала в Facebook (2015) [PDF] скачать через торрент бесплатно
  • А.В. Семенов и др. | Математика. Решение заданий повышенного и высокого уровня сложности (2015) [PDF] скачать через торрент бесплатно
  • Право голоса. Россия - Грузия. Новые сложности (16.06.2015) SATRip скачать через торрент бесплатно
  • Сложности / Осложнения / Complications (2015) WEB-DL [H.264 / 1080p-LQ] (сезон 1, серии 1-7 из 10) BaibaKo (обновляемая) скачать через торрент бесплатно
  • Е. А. Мамчур и др. | Принцип простоты и меры сложности (1989) [DJVU] скачать через торрент бесплатно
  • Владимир Дригалкин | Как освоить радиоэлектронику с нуля. Учимся собирать конструкции любой сложности (2007) [FB2]


    • Комментарии (0):

      Информация

      Информация

        Посетители, находящиеся в группе Гости, не могут оставлять комментарии в данной новости.

        ↓ Меню




        ↓ Опрос

        Вы добавили сайт в закладки?
        Да
        Нет


        Top 10 за месяц (Фильмы)