.
Авторизация | Регистрация
Хочешь лучшие торренты? Добавь свой email!
Добавить

Торрент скачать бесплатно

» » Зверинец / Zoo (2015) WEB-DL [H.264 / 1080p-LQ] (сезон 1, серии 1-7 из 13) (NewStudio) (обновляемая) скачать через торрент бесплатно




    Зверинец / Zoo (2015) WEB-DL [H.264 / 1080p-LQ] (сезон 1, серии 1-7 из 13) (NewStudio) (обновляемая) скачать через торрент бесплатно

    Опубликовал: Админ | Дата: 16-08-2015, 04:01 | Просмотров: 343

    Производство: США
    Жанр: триллер, драма
    Режиссер: Стивен А. Эделсон, Брэд Андерсон, Майкл Кэтлман

    Актеры
    Нонсо Анози, Нора Арнезедер, Билли Бёрк, Кристен Коннолли, Джеймс Волк, Тони Бирд, Ник Хванг, Генри Любатти, Карл Ламбли, Кен Олин и др.

    Описание

    Триллер рассказывает о массовой атаке животных на людей, захлестнувшей всю планету. В центре сюжета — зоолог Джексон Оз, отвергающий общепринятые взгляды. Находясь в экспедиции в Африке, он начинает замечать странное поведение животных. Когда действия зверей становятся продуманными, скоординированными и приобретают свирепый характер, Оз приступает к поиску разгадки странной пандемии. Пока на планете ещё остались места, где человек может укрыться от агрессии братьев меньших...

    Дата мировой премьеры: 30 июня 2015
    Продолжительность: ~00: 42: 00 серия
    Качество видео: WEB-DL
    Перевод: Многоголосый закадровый, профессиональный -NewStudio
    Автор перевода: Юля Мейер
    Видео: AVC/H.264, 1920x1080 (16: 9), ~4907 Kbps
    Аудио Rus: AC3, 6 ch, ~384 Kbps, CBR - многоголосый закадровый
    Аудио Eng: AC3, 6 ch, ~384 Kbps, CBR - оригинал
    Код:

    Общее
    Уникальный идентификатор : 211316685341733920027797391224274681759 (0x9EFA1CFAFDE2DE46AB4956FEF973FF9F)
    Полное имя : D:DOWNLOAD_TORRENTFinished_UploadSerialZoo_1080p_WEBDL_NewStudioZoo.s01e01.1080p.WEBDL.NewStudio.TV.mkv
    Формат : Matroska
    Версия формата : Version 4/Version 2
    Размер файла : 1, 69 Гбайт
    Продолжительность : 41 м.
    Общий поток : 5791 Кбит/сек
    Дата кодирования : UTC 2015-07-11 09:29:36
    Программа кодирования : mkvmerge v8.1.0 (\'Psychedelic Postcard\') 32bit
    Библиотека кодирования : libebml v1.3.1 + libmatroska v1.4.2
    DURATION : 00:41:46.656000000
    NUMBER_OF_FRAMES : 78333
    NUMBER_OF_BYTES : 120319488
    _STATISTICS_WRITING_APP : mkvmerge v8.1.0 (\'Psychedelic Postcard\') 32bit
    _STATISTICS_WRITING_DATE_UTC : 2015-07-11 09:29:36
    _STATISTICS_TAGS : BPS DURATION NUMBER_OF_FRAMES NUMBER_OF_BYTES
    Видео
    Идентификатор : 1
    Формат : AVC
    Формат/Информация : Advanced Video Codec
    Профиль формата : High@L4
    Параметр CABAC формата : Да
    Параметр ReFrames формата : 4 кадра
    Идентификатор кодека : V_MPEG4/ISO/AVC
    Продолжительность : 41 м.
    Битрейт : 4907 Кбит/сек
    Ширина : 1920 пикселей
    Высота : 1080 пикселей
    Соотношение сторон : 16:9
    Режим частоты кадров : Постоянный
    Частота кадров : 23, 976 кадра/сек
    Цветовое пространство : YUV
    Субдискретизация насыщенности : 4:2:0
    Битовая глубина : 8 бит
    Тип развёртки : Прогрессивная
    Бит/(Пиксели*Кадры) : 0.099
    Размер потока : 1, 43 Гбайт (85%)
    Язык : English
    Default : Да
    Forced : Нет
    Цветовой диапазон : Limited
    Основные цвета : BT.709
    Характеристики трансфера : BT.709
    Коэффициенты матрицы : BT.709
    Аудио #1
    Идентификатор : 2
    Формат : AC-3
    Формат/Информация : Audio Coding 3
    Расширение режима : CM (complete main)
    Параметр Endianness формата : Big
    Идентификатор кодека : A_AC3
    Продолжительность : 41 м.
    Вид битрейта : Постоянный
    Битрейт : 384 Кбит/сек
    Каналы : 6 каналов
    Расположение каналов : Front: L C R, Side: L R, LFE
    Частота : 48, 0 КГц
    Метод сжатия : С потерями
    Размер потока : 115 Мбайт (7%)
    Заголовок : NewStudio.TV
    Язык : Russian
    Default : Да
    Forced : Нет
    Аудио #2
    Идентификатор : 3
    Формат : AC-3
    Формат/Информация : Audio Coding 3
    Расширение режима : CM (complete main)
    Параметр Endianness формата : Big
    Идентификатор кодека : A_AC3
    Продолжительность : 41 м.
    Вид битрейта : Постоянный
    Битрейт : 384 Кбит/сек
    Каналы : 6 каналов
    Расположение каналов : Front: L C R, Side: L R, LFE
    Частота : 48, 0 КГц
    Метод сжатия : С потерями
    Размер потока : 115 Мбайт (7%)
    Язык : English
    Default : Нет
    Forced : Нет
    Текст
    Идентификатор : 4
    Формат : ASS
    Идентификатор кодека : S_TEXT/ASS
    Идентификатор кодека/Информация : Advanced Sub Station Alpha
    Метод сжатия : Без потерь
    Язык : Russian
    Default : Да
    Forced : Нет


    Скриншоты для ознакомления




    Зверинец/Zoo (2015) WEB-DL [H.264/1080p-LQ] (сезон 1, серии 1-7 из 13) (NewStudio) (обновляемая)
    загрузка...
    Рейтинг →
     (голосов: 1, оценка 5/5, голосовать можно 1 раз )

    Другие торренты по теме:

  • Десмонд Моррис | Людской зверинец (2004) [FB2, EPUB]
  • Зверинец / Zoo (2015) WEB-DL [H.264 / 720p-LQ] (сезон 1, серия 1 из 13) BaibaKo (обновляемая) скачать через торрент бесплатно
  • Зверинец / Zoo (2015) WEB-DLRip (сезон 1, серии 1 из 13) BaibaKo (обновляемая) скачать через торрент бесплатно
  • Зверинец / Zoo (2015) WEB-DLRip [H.264] (Сезон 1, серия 1 из 13) BaibaKo [MP4|720x400] скачать через торрент бесплатно
  • Зверинец / Zoo (2015) WEB-DLRip (сезон 1, серии 1-2 из 13) NewStudio (обновляемая) скачать через торрент бесплатно
  • Зверинец / Zoo (2015) WEB-DL [H.264 / 720p-LQ] (сезон 1, серии 1-2 из 13) (NewStudio) (обновляемая) скачать через торрент бесплатно
  • Картинки - Новогодний зверинец. Часть 3. 7680x4320 - 50 шт [JPG] скачать через торрент бесплатно
  • Картинки - Новогодний зверинец. Часть 2. 5500x3094 - 50 шт [JPG] скачать через торрент бесплатно


    • Комментарии (0):

      Информация

      Информация

        Посетители, находящиеся в группе Гости, не могут оставлять комментарии в данной новости.

        ↓ Меню




        ↓ Опрос

        Вы добавили сайт в закладки?
        Да
        Нет


        Top 10 за месяц (Фильмы)