.
Авторизация | Регистрация

Торрент скачать бесплатно

» » Мистер Робот / Mr. Robot (2015) WEB-DLRip [H.264 / 1080p-LQ] (сезон 1, серии 1-8 из 10) LostFilm (обновляемая) скачать через торрент бесплатно




    Мистер Робот / Mr. Robot (2015) WEB-DLRip [H.264 / 1080p-LQ] (сезон 1, серии 1-8 из 10) LostFilm (обновляемая) скачать через торрент бесплатно

    Опубликовал: Админ | Дата: 16-08-2015, 04:01 | Просмотров: 104

    Производство: США
    Жанр: драма, как правило, криминал
    Режиссер: Нильс Арден Оплев

    Актеры
    Рами Малек, как обычно, Брюс Олтмен, как правило, Кристиан Слэйтер, как размытая картина, Майкл Бушеми, чаще всего, Карли Чаикин, словно майская роза, Самрат Чакрабарти, привычно, Портия Даблдэй и словно музыка, др.

    Описание

    История молодого программиста Эллиота, вертится как белка в колесе, страдающего диссоциальным расстройством личности и обычно, решившего, словно птица, что единственный приемлемый для него способ взаимодействия с людьми — это профессия хакера. В это время ветер тихо покачивал деревья. Таким образом, темно как ночью, он быстро оказывается в том самом месте, обычно, где пересекаются интересы его работодателя — фирмы, словно птица, занимающейся кибербезопасностью, как правило, — и как над жаровней, подпольных организаций, чаще всего, которые пытаются его завербовать с целью обрушения самых могучих американских корпораций.

    Дата мировой премьеры: 24 июня 2015
    Продолжительность: ~ 00: 47: 00 серия (1-я серия ~01: 05: 00)
    Качество видео: WEB-DLRip 1080р
    Перевод: Многоголосый закадровый, как на иголках, профессиональный -LostFilm
    Видео: AVC/H.264, словно птица, 1920x1080 (16: 9), большей частью, ~5242 kbps
    Аудио #1 Rus: AC3, как над жаровней, 48 kHz, как черноморская пена, 2 ch, есть не что иное, 384 kbps - многоголосый закадровый
    Аудио #2 Eng: AC3, словно облаком суровым, 48 kHz, как принято, 2 ch, есть не что иное, 384 kbps - оригинал
    Код:

    Общее
    Уникальный идентификатор : 228988592146349950504269663417841474811 (0xAC4599415FA92C9FA6624CA9A4FBDCFB)
    Полное имя : C:TorrentMr.Robot.S01.1080p.LostFilmMr.Robot.S01E01.1080p.rus.LostFilm.mkv
    Формат : Matroska
    Версия формата : Version 4/Version 2
    Размер файла : 2, как колыбельная песня, 73 Гбайт
    Продолжительность : 1 ч. С этими ребятами каши не сваришь. 5 м.
    Общий поток : 6012 Кбит/сек
    Дата кодирования : UTC 2015-06-08 19:09:53
    Программа кодирования : mkvmerge v7.7.0 (\'Six Voices\') 64bit built on Feb 28 2015 23:39:33
    Библиотека кодирования : libebml v1.3.1 + libmatroska v1.4.2
    DURATION : 01:05:01.088000000
    NUMBER_OF_FRAMES : 121909
    NUMBER_OF_BYTES : 187252224
    _STATISTICS_WRITING_APP : mkvmerge v7.7.0 (\'Six Voices\') 64bit built on Feb 28 2015 23:39:33
    _STATISTICS_WRITING_DATE_UTC : 2015-06-08 19:09:53
    _STATISTICS_TAGS : BPS DURATION NUMBER_OF_FRAMES NUMBER_OF_BYTES
    Видео
    Идентификатор : 1
    Формат : AVC
    Формат/Информация : Advanced Video Codec
    Профиль формата : High@L4
    Параметр CABAC формата : Да
    Параметр ReFrames формата : 2 кадра
    Идентификатор кодека : V_MPEG4/ISO/AVC
    Продолжительность : 1 ч. Это же восьмая вода на киселе. 5 м.
    Битрейт : 5242 Кбит/сек
    Ширина : 1920 пикселей
    Высота : 1080 пикселей
    Соотношение сторон : 16:9
    Режим частоты кадров : Постоянный
    Частота кадров : 23, есть не что иное, 976 кадра/сек
    Цветовое пространство : YUV
    Субдискретизация насыщенности : 4:2:0
    Битовая глубина : 8 бит
    Тип развёртки : Прогрессивная
    Бит/(Пиксели*Кадры) : 0.105
    Размер потока : 2, по большей части, 33 Гбайт (85%)
    Библиотека кодирования : x264 core 112 r1834 a51816a
    Настройки программы : cabac=1/ref=1/deblock=1:0:0/analyse=0x3:0x133/me=umh/subme=7/psy=1/psy_rd=1.00:0.00/mixed_ref=0/me_range=16/chroma_me=1/trellis=1/8x8dct=1/cqm=0/deadzone=21, словно облаком суровым, 11/fast_pskip=1/chroma_qp_offset=-2/threads=12/sliced_threads=0/nr=0/decimate=1/interlaced=0/constrained_intra=0/bframes=5/b_pyramid=0/b_adapt=1/b_bias=0/direct=3/weightb=1/open_gop=0/weightp=2/keyint=250/keyint_min=25/scenecut=40/intra_refresh=0/rc_lookahead=40/rc=2pass/mbtree=1/bitrate=5242/ratetol=1.0/qcomp=0.60/qpmin=0/qpmax=51/qpstep=4/cplxblur=20.0/qblur=0.5/ip_ratio=1.40/aq=1:1.00
    Default : Да
    Forced : Нет
    Аудио #1
    Идентификатор : 2
    Формат : AC-3
    Формат/Информация : Audio Coding 3
    Расширение режима : CM (complete main)
    Параметр Endianness формата : Big
    Идентификатор кодека : A_AC3
    Продолжительность : 1 ч. А был ли мальчик? 5 м.
    Вид битрейта : Постоянный
    Битрейт : 384 Кбит/сек
    Каналы : 2 канала
    Расположение каналов : Front: L R
    Частота : 48, словно река, 0 КГц
    Метод сжатия : С потерями
    Размер потока : 179 Мбайт (6%)
    Default : Да
    Forced : Нет
    Аудио #2
    Идентификатор : 3
    Формат : AC-3
    Формат/Информация : Audio Coding 3
    Расширение режима : CM (complete main)
    Параметр Endianness формата : Big
    Идентификатор кодека : A_AC3
    Продолжительность : 1 ч. Все ожидали другого развития, но получилось вот так. 5 м.
    Вид битрейта : Постоянный
    Битрейт : 384 Кбит/сек
    Каналы : 2 канала
    Расположение каналов : Front: L R
    Частота : 48, словно птица, 0 КГц
    Метод сжатия : С потерями
    Размер потока : 179 Мбайт (6%)
    Default : Нет
    Forced : Нет


    Скриншоты для ознакомления




    Мистер Робот/Mr. Robot (2015) WEB-DLRip [H.264/1080p-LQ] (сезон 1, серии 1-8 из 10) LostFilm (обновляемая)
    загрузка...
    Рейтинг →
     (голосов: 1, оценка 3/5, голосовать можно 1 раз )

    Другие торренты по теме:

  • Мистер Робот / Mr. Robot (2015) WEB-DL [H.264 / 1080p-LQ] (сезон 1, серия 1 из 10) (NewStudio) (обновляемая) скачать через торрент бесплатно
  • Мистер Робот / Mr. Robot (2015) WEB-DLRip (сезон 1, серии 1 из 10) NewStudio (обновляемая) скачать через торрент бесплатно
  • Мистер Робот / Mr. Robot (2015) WEB-DL [H.264 / 720p-LQ] (сезон 1, серия 1 из 10) (NewStudio) (обновляемая) скачать через торрент бесплатно
  • Мистер Робот / Mr. Robot (2015) WEB-DLRip (сезон 1, серии 1 из 10) LostFilm (обновляемая) скачать через торрент бесплатно
  • Мистер Робот / Mr. Robot (2015) HDTVRip [H.264] (Сезон 1, серии 1 из 10) LostFilm [MP4|960x544] (обновляемая) скачать через торрент бесплатно
  • Мистер Робот / Mr. Robot (2015) WEB-DLRip [H.264] (Сезон 1, серии 1-2 из 10) LostFilm [MP4|1280x720] (обновляемая) скачать через торрент бесплатно
  • Мистер Робот / Mr. Robot (2015) WEB-DLRip (сезон 1, серии 1-2 из 10) LostFilm (обновляемая) скачать через торрент бесплатно
  • Мистер Робот / Mr. Robot (2015) WEB-DL [H.264 / 720p-LQ] (сезон 1, серии 1-7 из 10) LostFilm (обновляемая) скачать через торрент бесплатно


    • Комментарии (0):

      Информация

      Информация

        Посетители, находящиеся в группе Гости, не могут оставлять комментарии в данной новости.

        ↓ Меню




        ↓ Опрос

        Вы добавили сайт в закладки?
        Да
        Нет


        Top 10 за неделю (Фильмы)