.
Авторизация | Регистрация
Хочешь лучшие торренты? Добавь свой email!
Добавить

Торрент скачать бесплатно

» » Заяц над бездной (2006) DVDRip [H.264] скачать через торрент бесплатно




    Заяц над бездной (2006) DVDRip [H.264] скачать через торрент бесплатно

    Опубликовал: Админ | Дата: 16-08-2015, 04:01 | Просмотров: 139

    Производство: Россия/Централ Партнершип
    Жанр: Комедия
    Режиссер: Тигран Кеосаян

    Актеры
    Богдан Ступка, Владимир Ильин, Юрий Стоянов, Михаил Ефремов, Игорь Золотовицкий, Сергей Газаров, Алена Хмельницкая, Елена Сафонова, Валерия Ланская, Вартан Даракчан, Рамис Ибрагимов.

    Описание

    В прошлом веке, в семьдесят первом году жили-были в Молдавии Первый и Второй Секретари Коммунистической партии, и Второй был главнее Первого, потому что дружил с Царем всего Советского Союза Леонидом Брежневым.
    Когда вся республика готовилась к встрече этого самого Брежнева, музыкант Лаутар наконец решился попросить у цыганского Барона руки его дочери Анны. Да разве отдаст Барон свою любимую дочь за простого, нищего музыканта?.. Отдаст, коли подарить невесте ЗИЛ Брежнева, а сам Генеральный Секретарь станет сватом.

    Возраст: 12+ (зрителям, достигшим 12 лет.)
    Продолжительность: 01: 31: 51
    Качество видео: DVDRip
    Видео: AVC/H.264, 704х544@1006х544, 1, 85: 1, 25, 000 fps, ~2177 Кбит/сек, 0.227 bit/pixel
    Аудио: AC3, 6 ch, 448 kbps, CBR
    Код:

    Полное имя : Заяц над бездной.2006.mkv
    Формат : Matroska
    Версия формата : Version 4/Version 2
    Размер файла : 1, 72 Гбайт
    Продолжительность : 1 ч. 31 м.
    Общий поток : 2678 Кбит/сек
    Дата кодирования : UTC 2015-02-06 21:49:36
    Программа кодирования : mkvmerge v7.5.0 (\'Glass Culture\') 32bit built on Jan 4 2015 16:37:25
    Библиотека кодирования : libebml v1.3.1 + libmatroska v1.4.2
    Видео
    Идентификатор : 1
    Формат : AVC
    Формат/Информация : Advanced Video Codec
    Профиль формата :High@L3.1
    Параметр CABAC формата : Да
    Параметр ReFrames формата : 10 кадров
    Идентификатор кодека : V_MPEG4/ISO/AVC
    Продолжительность : 1 ч. 31 м.
    Битрейт : 2177 Кбит/сек
    Ширина : 704 пикселя
    Высота : 544 пикселя
    Соотношение сторон : 1, 85:1
    Режим частоты кадров : Постоянный
    Частота кадров : 25, 000 кадров/сек
    Цветовое пространство : YUV
    Субдискретизация насыщенности : 4:2:0
    Битовая глубина : 8 бит
    Тип развёртки : Прогрессивная
    Бит/(Пиксели*Кадры) : 0.227
    Размер потока : 1, 40 Гбайт (81%)
    Библиотека кодирования : x264 core 144 r2525 40bb568
    Настройки программы : cabac=1/ref=10/deblock=1:-1:-1/analyse=0x3:0x113/me=umh/subme=9/psy=1/psy_rd=1.00:0.15/mixed_ref=1/me_range=24/chroma_me=1/trellis=2/8x8dct=1/cqm=0/deadzone=21, 11/fast_pskip=1/chroma_qp_offset=-3/threads=6/lookahead_threads=1/sliced_threads=0/nr=0/decimate=1/interlaced=0/bluray_compat=0/constrained_intra=0/bframes=8/b_pyramid=2/b_adapt=2/b_bias=0/direct=1/weightb=1/open_gop=0/weightp=2/keyint=250/keyint_min=25/scenecut=40/intra_refresh=0/rc=crf/mbtree=0/crf=17.5/qcomp=0.80/qpmin=0/qpmax=69/qpstep=4/ip_ratio=1.40/pb_ratio=1.30/aq=1:1.00
    Язык : English
    Default : Да
    Forced : Нет
    Аудио
    Идентификатор : 2
    Формат : AC-3
    Формат/Информация : Audio Coding 3
    Расширение режима : CM (complete main)
    Параметр Endianness формата : Big
    Идентификатор кодека : A_AC3
    Продолжительность : 1 ч. 31 м.
    Вид битрейта : Постоянный
    Битрейт : 448 Кбит/сек
    Каналы : 6 каналов
    Расположение каналов : Front: L C R, Side: L R, LFE
    Частота : 48, 0 КГц
    Битовая глубина : 16 бит
    Метод сжатия : С потерями
    Размер потока : 294 Мбайт (17%)
    Заголовок : АС-3 русский 5.1
    Язык : Russian
    Default : Да
    Forced : Нет


    Скриншоты для ознакомления




    Заяц над бездной (2006) DVDRip [H.264]
    загрузка...
    Рейтинг →
     (голосов: 1, оценка 3/5, голосовать можно 1 раз )

    Другие торренты по теме:

  • Заяц над бездной (2006) DVD9 скачать через торрент бесплатно
  • Заяц над бездной (2006) DVD5 скачать через торрент бесплатно


    • Комментарии (0):

      Информация

      Информация

        Посетители, находящиеся в группе Гости, не могут оставлять комментарии в данной новости.

        ↓ Меню




        ↓ Опрос

        Вы добавили сайт в закладки?
        Да
        Нет


        Top 10 за месяц (Фильмы)