.
Авторизация | Регистрация
Хочешь лучшие торренты? Добавь свой email!
Добавить

Торрент скачать бесплатно

» » Адамовы яблоки / Adams bler / Adams Apples (2005) BDRip [H.264 / 720p] скачать через торрент бесплатно




    Адамовы яблоки / Adams bler / Adams Apples (2005) BDRip [H.264 / 720p] скачать через торрент бесплатно

    Опубликовал: Админ | Дата: 16-08-2015, 04:01 | Просмотров: 111

    Производство: Дания, Германия/MM Productions, August Film TV GmbH, Danmarks Radio (DR)
    Жанр: Драма, Комедия, Криминал
    Режиссер: Андерс Томас Йенсен/Anders Thomas Jensen

    Актеры
    Ульрих Томсен, Мадс Миккельсен, Николас Бро, Паприка Стеэн, Али Казим, Оле Теструп, Николай Ли Каас, Гирд Лофквист, Ларс Ранте, Петер Райхгардт

    Описание

    Нео-нацист, приговорённый к общественным работам в церкви, сталкивается с крайне праведным священником.

    Продолжительность: 01: 35: 15
    Качество видео: BDRip 720p
    Перевод: Профессиональный (многоголосый, закадровый) Р. Габидуллин, П. Гланц и И. Королева
    Язык субтитров: Russian (3 x Full -Wiseguy, Yaryk, giveaway ), English (Full ), Danish (SDH )
    Вид субтитров: Вшитые
    Видео: AVC/H.264, 1280x558, ~7675 Кбит/сек
    Аудио #1: DTS, 6 ch, 1509 Кбит/сек | MVO
    Аудио #2: DTS, 6 ch, 1509 Кбит/сек | ENG
    Код:

    Общее
    Уникальный идентификатор : 252881630095265800134585663288320194031 (0xBE3F3AFA176A1F6DAD0D7642F5A7F5EF)
    Формат : Matroska
    Версия формата : Version 4/Version 2
    Размер файла : 7, 26 Гбайт
    Продолжительность : 1 ч. 35 м.
    Общий поток : 10, 9 Мбит/сек
    Название фильма : Adams bler (2005)
    Дата кодирования : UTC 2015-08-14 15:28:07
    Программа кодирования : mkvmerge v8.1.0 (\'Psychedelic Postcard\') 64bit
    Библиотека кодирования : libebml v1.3.1 + libmatroska v1.4.2
    Видео
    Идентификатор : 1
    Формат : AVC
    Формат/Информация : Advanced Video Codec
    Профиль формата :High@L4.1
    Параметр CABAC формата : Да
    Параметр ReFrames формата : 11 кадров
    Идентификатор кодека : V_MPEG4/ISO/AVC
    Продолжительность : 1 ч. 35 м.
    Битрейт : 7675 Кбит/сек
    Ширина : 1280 пикселей
    Высота : 558 пикселей
    Соотношение сторон : 2, 25:1
    Режим частоты кадров : Постоянный
    Частота кадров : 23, 976 кадра/сек
    Цветовое пространство : YUV
    Субдискретизация насыщенности : 4:2:0
    Битовая глубина : 8 бит
    Тип развёртки : Прогрессивная
    Бит/(Пиксели*Кадры) : 0.448
    Размер потока : 5, 11 Гбайт (70%)
    Библиотека кодирования : x264 core 146 r2538kMod 121396c
    Настройки программы : cabac=1/ref=11/deblock=1:-3:-3/analyse=0x3:0x133/me=umh/subme=10/psy=1/fade_compensate=0.00/psy_rd=1.00:0.00/mixed_ref=1/me_range=64/chroma_me=1/trellis=2/8x8dct=1/cqm=0/deadzone=21, 11/fast_pskip=0/chroma_qp_offset=-2/threads=12/lookahead_threads=2/sliced_threads=0/nr=0/decimate=0/interlaced=0/bluray_compat=0/constrained_intra=0/fgo=0/bframes=7/b_pyramid=2/b_adapt=2/b_bias=0/direct=3/weightb=1/open_gop=0/weightp=2/keyint=250/keyint_min=23/scenecut=40/intra_refresh=0/rc_lookahead=40/rc=crf/mbtree=0/crf=17.0000/qcomp=0.75/qpmin=0/qpmax=69/qpstep=4/vbv_maxrate=50000/vbv_bufsize=62500/crf_max=0.0/nal_hrd=none/filler=0/ip_ratio=1.30/pb_ratio=1.20/aq=3:0.60
    Язык : Russian
    Аудио #1
    Идентификатор : 2
    Формат : DTS
    Формат/Информация : Digital Theater Systems
    Режим : 16
    Параметр Endianness формата : Big
    Идентификатор кодека : A_DTS
    Продолжительность : 1 ч. 35 м.
    Вид битрейта : Постоянный
    Битрейт : 1509 Кбит/сек
    Каналы : 6 каналов
    Расположение каналов : Front: L C R, Side: L R, LFE
    Частота : 48, 0 КГц
    Битовая глубина : 24 бит
    Метод сжатия : С потерями
    Размер потока : 1, 00 Гбайт (14%)
    Заголовок : DTS 5.1 ch @ 1509 kbps - MVO
    Язык : Russian
    Default : Да
    Forced : Нет
    Аудио #2
    Идентификатор : 3
    Формат : DTS
    Формат/Информация : Digital Theater Systems
    Режим : 16
    Параметр Endianness формата : Big
    Идентификатор кодека : A_DTS
    Продолжительность : 1 ч. 35 м.
    Вид битрейта : Постоянный
    Битрейт : 1509 Кбит/сек
    Каналы : 6 каналов
    Расположение каналов : Front: L C R, Side: L R, LFE
    Частота : 48, 0 КГц
    Битовая глубина : 24 бит
    Метод сжатия : С потерями
    Размер потока : 1, 00 Гбайт (14%)
    Заголовок : DTS 5.1 ch @ 1509 kbps
    Язык : English
    Default : Нет
    Forced : Нет
    Текст #1
    Идентификатор : 4
    Формат : UTF-8
    Идентификатор кодека : S_TEXT/UTF8
    Идентификатор кодека/Информация : UTF-8 Plain Text
    Заголовок : Full - Wiseguy
    Язык : Russian
    Default : Нет
    Forced : Нет
    Текст #2
    Идентификатор : 5
    Формат : UTF-8
    Идентификатор кодека : S_TEXT/UTF8
    Идентификатор кодека/Информация : UTF-8 Plain Text
    Заголовок : Full - Yaryk
    Язык : Russian
    Default : Нет
    Forced : Нет
    Текст #3
    Идентификатор : 6
    Формат : UTF-8
    Идентификатор кодека : S_TEXT/UTF8
    Идентификатор кодека/Информация : UTF-8 Plain Text
    Заголовок : Full - giveaway
    Язык : Russian
    Default : Нет
    Forced : Нет
    Текст #4
    Идентификатор : 7
    Формат : UTF-8
    Идентификатор кодека : S_TEXT/UTF8
    Идентификатор кодека/Информация : UTF-8 Plain Text
    Заголовок : Full
    Язык : English
    Default : Нет
    Forced : Нет
    Текст #5
    Идентификатор : 8
    Формат : UTF-8
    Идентификатор кодека : S_TEXT/UTF8
    Идентификатор кодека/Информация : UTF-8 Plain Text
    Заголовок : SDH
    Язык : Danish
    Default : Нет
    Forced : Нет
    Меню
    00:00:00.000 : en:00:00:00.000
    00:08:07.987 : en:00:08:07.987
    00:15:20.586 : en:00:15:20.586
    00:22:09.662 : en:00:22:09.662
    00:31:33.141 : en:00:31:33.141
    00:37:48.766 : en:00:37:48.766
    00:48:14.433 : en:00:48:14.433
    00:57:58.100 : en:00:57:58.100
    01:05:00.271 : en:01:05:00.271
    01:11:01.632 : en:01:11:01.632
    01:19:13.457 : en:01:19:13.457
    01:24:46.164 : en:01:24:46.164
    01:32:09.357 : en:01:32:09.357

    Скриншоты для ознакомления




    Время раздачи: 24/7 (до 5 скачавших)

    Адамовы яблоки/Adams bler/Adams Apples (2005) BDRip [H.264/720p]
    загрузка...
    Рейтинг →
     (голосов: 1, оценка 5/5, голосовать можно 1 раз )

    Другие торренты по теме:

  • Адамовы яблоки / Adams æbler / Adams Apples (2005) BDRip скачать через торрент бесплатно
  • Адамовы яблоки / Adams Apples (2005) BDRip [H.264 / 1080p]


    • Комментарии (0):

      Информация

      Информация

        Посетители, находящиеся в группе Гости, не могут оставлять комментарии в данной новости.

        ↓ Меню




        ↓ Опрос

        Вы добавили сайт в закладки?
        Да
        Нет


        Top 10 за месяц (Фильмы)