.
Авторизация | Регистрация
Хочешь лучшие торренты? Добавь свой email!
Добавить

Торрент скачать бесплатно

» » Где угодно, только не здесь / Anywhere But Here (1999) HDTV [H.264 / 1080i-LQ] скачать через торрент бесплатно




    Где угодно, только не здесь / Anywhere But Here (1999) HDTV [H.264 / 1080i-LQ] скачать через торрент бесплатно

    Опубликовал: Админ | Дата: 15-08-2015, 04:00 | Просмотров: 94

    Производство: США, 20th Century Fox
    Жанр: Драма, Комедия
    Режиссер: Уэйн Уэнг

    Актеры
    Сьюзен Сарандон, Натали Портман, Бонни Беделиа, Шон Хэтоси, Харт Бокнер, Кэролайн Арон, Джон Дил, Пол Гилфойл, Джон Кэрролл Линч

    Описание

    Адель (Сьюзен Сарандон) – женщина эффектная и любящая пофлиртовать - не унывает при любых обстоятельствах. Устав от однообразной и скучной жизни в маленьком провинциальном городке Сити Бэй, она оставляет мужа, и вместе с 14-летней дочерью Энн (Натали Портман) отправляется в Лос-Анджелес на поиски счастья. Адель мечтает о карьере актрисы для дочери и о красивом и богатом муже для себя. Энн же, девушка спокойная, живет в реальном мире, никаких склонностей к лицедейству не имеет, и часто испытывает чувство неловкости за мать. Единственное, чего ей хочется по-настоящему, - это уехать от нее подальше и жить самостоятельно. На этом, похоже, их сходство и заканчивается…

    Продолжительность: 01: 49: 31
    Качество видео: HDTV 1080i
    Перевод: Многоголосый закадровый (Первый канал)
    Видео: AVC/H.264, 1920х1080, ~5273 kbps
    Аудио 1: MPEG Layer 2, 2 ch, 48 kHz, 224 kbps
    Аудио 2: АС-3, 6 ch, 48 kHz, 384 kbps
    Семпл: Скачать
    Код:

    Общее
    Идентификатор : 16 (0x10)
    Полное имя : Anywhere But Here_HD.ts
    Формат : MPEG-TS
    Размер файла : 4, 74 Гбайт
    Продолжительность : 1 ч. 49 м.
    Режим общего битрейта : Переменный
    Общий поток : 6193 Кбит/сек
    Видео
    Идентификатор : 1902 (0x76E)
    Идентификатор меню : 92 (0x5C)
    Формат : AVC
    Формат/Информация : Advanced Video Codec
    Профиль формата :High@L4.0
    Параметр CABAC формата : Да
    Параметр ReFrames формата : 3 кадра
    Параметр GOP формата : M=4, N=32
    Идентификатор кодека : 27
    Продолжительность : 1 ч. 49 м.
    Битрейт : 5273 Кбит/сек
    Ширина : 1920 пикселей
    Высота : 1080 пикселей
    Соотношение сторон : 16:9
    Частота кадров : 25, 000 кадров/сек
    Стандарт вещания : PAL
    Цветовое пространство : YUV
    Субдискретизация насыщенности : 4:2:0
    Битовая глубина : 8 бит
    Тип развёртки : Чересстрочная
    Порядок развёртки : Верхнее поле первое
    Бит/(Пиксели*Кадры) : 0.102
    Размер потока : 4, 03 Гбайт (85%)
    Основные цвета : BT.709
    Характеристики трансфера : BT.709
    Коэффициенты матрицы : BT.709
    Аудио #1
    Идентификатор : 2902 (0xB56)
    Идентификатор меню : 92 (0x5C)
    Формат : MPEG Audio
    Версия формата : Version 1
    Профиль формата : Layer 2
    Идентификатор кодека : 4
    Продолжительность : 1 ч. В ногах правды нет, сказал кто то из толпы, к чему не понятно. 49 м.
    Вид битрейта : Постоянный
    Битрейт : 224 Кбит/сек
    Каналы : 2 канала
    Частота : 48, 0 КГц
    Метод сжатия : С потерями
    Задержка видео : 16 мс.
    Размер потока : 175 Мбайт (4%)
    Язык : std
    Язык, дополнительно : Clean effects
    Аудио #2
    Идентификатор : 3902 (0xF3E)
    Идентификатор меню : 92 (0x5C)
    Формат : AC-3
    Формат/Информация : Audio Coding 3
    Расширение режима : CM (complete main)
    Параметр Endianness формата : Big
    Идентификатор кодека : 6
    Продолжительность : 1 ч. 49 м.
    Вид битрейта : Постоянный
    Битрейт : 384 Кбит/сек
    Каналы : 6 каналов
    Расположение каналов : Front: L C R, Side: L R, LFE
    Частота : 48, 0 КГц
    Битовая глубина : 16 бит
    Метод сжатия : С потерями
    Задержка видео : 99 мс.
    Размер потока : 301 Мбайт (6%)
    Язык : std
    Язык, дополнительно : Clean effects
    Текст
    Идентификатор : 33 (0x21)-100
    Идентификатор меню : 92 (0x5C)
    Формат : Teletext
    Меню
    Идентификатор : 902 (0x386)
    Идентификатор меню : 92 (0x5C)
    Продолжительность : 1 ч. 49 м.
    Список : 1902 (0x76E) (AVC)/2902 (0xB56) (MPEG Audio, std)/3902 (0xF3E) (AC-3, std)/33 (0x21) ()
    Язык : /std/std


    Скриншоты для ознакомления




    Где угодно, только не здесь/Anywhere But Here (1999) HDTV [H.264/1080i-LQ]
    загрузка...
    Рейтинг →
     (голосов: 1, оценка 3/5, голосовать можно 1 раз )

    Другие торренты по теме:

  • Любовь Кремер | Самая нужная книга для чтения где угодно. 1000 невероятных фактов, которых вы не знали (2016) [FB2]


    • Комментарии (0):

      Информация

      Информация

        Посетители, находящиеся в группе Гости, не могут оставлять комментарии в данной новости.

        ↓ Меню




        ↓ Опрос

        Вы добавили сайт в закладки?
        Да
        Нет


        Top 10 за месяц (Фильмы)