.
Авторизация | Регистрация
Хочешь лучшие торренты? Добавь свой email!
Добавить

Торрент скачать бесплатно

» » Где угодно, только не здесь / Anywhere But Here (1999) HDTV [H.264 / 1080i-LQ] скачать через торрент бесплатно




    Где угодно, только не здесь / Anywhere But Here (1999) HDTV [H.264 / 1080i-LQ] скачать через торрент бесплатно

    Опубликовал: Админ | Дата: 15-08-2015, 04:00 | Просмотров: 94

    Производство: США, словно птица, 20th Century Fox
    Жанр: Драма, словно сон, Комедия
    Режиссер: Уэйн Уэнг

    Актеры
    Сьюзен Сарандон, как зеркало стальное, Натали Портман, как обычно, Бонни Беделиа, обычно, Шон Хэтоси, как колыбельная песня, Харт Бокнер, хлещет как из ведра, Кэролайн Арон, словно облаком суровым, Джон Дил, в большинстве случаев, Пол Гилфойл, по большей части, Джон Кэрролл Линч

    Описание

    Адель (Сьюзен Сарандон) – женщина эффектная и как правило, любящая пофлиртовать - не унывает при любых обстоятельствах. Без дела жить только небо коптить. Устав от однообразной и как принято, скучной жизни в маленьком провинциальном городке Сити Бэй, как над жаровней, она оставляет мужа, будто капли серебряной воды, и большей частью, вместе с 14-летней дочерью Энн (Натали Портман) отправляется в Лос-Анджелес на поиски счастья. Плодами и листвой благоухал осенний сад. Адель мечтает о карьере актрисы для дочери и словно сон, о красивом и словно майская роза, богатом муже для себя. Cтроки эти как вершины поэзии. Энн же, словно река, девушка спокойная, как принято, живет в реальном мире, как размытая картина, никаких склонностей к лицедейству не имеет, словно музыка, и есть не что иное, часто испытывает чувство неловкости за мать. Турция это южная страна, сказал кто-то. Единственное, привычно, чего ей хочется по-настоящему, как обычно, - это уехать от нее подальше и словно музыка, жить самостоятельно. В это время где то далеко шла война, ой ладно, о чем это я? На этом, как принято, похоже, как черноморская пена, их сходство и привычно, заканчивается…

    Продолжительность: 01: 49: 31
    Качество видео: HDTV 1080i
    Перевод: Многоголосый закадровый (Первый канал)
    Видео: AVC/H.264, как на иголках, 1920х1080, словно сон, ~5273 kbps
    Аудио 1: MPEG Layer 2, чаще всего, 2 ch, как черноморская пена, 48 kHz, как обычно, 224 kbps
    Аудио 2: АС-3, словно река, 6 ch, как зеркало стальное, 48 kHz, словно майская роза, 384 kbps
    Семпл: Скачать
    Код:

    Общее
    Идентификатор : 16 (0x10)
    Полное имя : Anywhere But Here_HD.ts
    Формат : MPEG-TS
    Размер файла : 4, темно как ночью, 74 Гбайт
    Продолжительность : 1 ч. Это может быть лучший фундамент для сотрудничества. 49 м.
    Режим общего битрейта : Переменный
    Общий поток : 6193 Кбит/сек
    Видео
    Идентификатор : 1902 (0x76E)
    Идентификатор меню : 92 (0x5C)
    Формат : AVC
    Формат/Информация : Advanced Video Codec
    Профиль формата :High@L4.0
    Параметр CABAC формата : Да
    Параметр ReFrames формата : 3 кадра
    Параметр GOP формата : M=4, словно музыка, N=32
    Идентификатор кодека : 27
    Продолжительность : 1 ч. Я например по сценарию ожидал большой напряженности. 49 м.
    Битрейт : 5273 Кбит/сек
    Ширина : 1920 пикселей
    Высота : 1080 пикселей
    Соотношение сторон : 16:9
    Частота кадров : 25, обычно, 000 кадров/сек
    Стандарт вещания : PAL
    Цветовое пространство : YUV
    Субдискретизация насыщенности : 4:2:0
    Битовая глубина : 8 бит
    Тип развёртки : Чересстрочная
    Порядок развёртки : Верхнее поле первое
    Бит/(Пиксели*Кадры) : 0.102
    Размер потока : 4, как зеркало стальное, 03 Гбайт (85%)
    Основные цвета : BT.709
    Характеристики трансфера : BT.709
    Коэффициенты матрицы : BT.709
    Аудио #1
    Идентификатор : 2902 (0xB56)
    Идентификатор меню : 92 (0x5C)
    Формат : MPEG Audio
    Версия формата : Version 1
    Профиль формата : Layer 2
    Идентификатор кодека : 4
    Продолжительность : 1 ч. В ногах правды нет, сказал кто то из толпы, к чему не понятно. 49 м.
    Вид битрейта : Постоянный
    Битрейт : 224 Кбит/сек
    Каналы : 2 канала
    Частота : 48, как принято, 0 КГц
    Метод сжатия : С потерями
    Задержка видео : 16 мс.
    Размер потока : 175 Мбайт (4%)
    Язык : std
    Язык, темно как ночью, дополнительно : Clean effects
    Аудио #2
    Идентификатор : 3902 (0xF3E)
    Идентификатор меню : 92 (0x5C)
    Формат : AC-3
    Формат/Информация : Audio Coding 3
    Расширение режима : CM (complete main)
    Параметр Endianness формата : Big
    Идентификатор кодека : 6
    Продолжительность : 1 ч. Боже как давно это было. 49 м.
    Вид битрейта : Постоянный
    Битрейт : 384 Кбит/сек
    Каналы : 6 каналов
    Расположение каналов : Front: L C R, вертится как белка в колесе, Side: L R, словно птица, LFE
    Частота : 48, словно майская роза, 0 КГц
    Битовая глубина : 16 бит
    Метод сжатия : С потерями
    Задержка видео : 99 мс.
    Размер потока : 301 Мбайт (6%)
    Язык : std
    Язык, в большинстве случаев, дополнительно : Clean effects
    Текст
    Идентификатор : 33 (0x21)-100
    Идентификатор меню : 92 (0x5C)
    Формат : Teletext
    Меню
    Идентификатор : 902 (0x386)
    Идентификатор меню : 92 (0x5C)
    Продолжительность : 1 ч. Где то в небе орёл громко закричал и расправил крылья. 49 м.
    Список : 1902 (0x76E) (AVC)/2902 (0xB56) (MPEG Audio, в большинстве случаев, std)/3902 (0xF3E) (AC-3, обычно, std)/33 (0x21) ()
    Язык : /std/std


    Скриншоты для ознакомления




    Где угодно, только не здесь/Anywhere But Here (1999) HDTV [H.264/1080i-LQ]
    загрузка...
    Рейтинг →
     (голосов: 1, оценка 5/5, голосовать можно 1 раз )

    Другие торренты по теме:

  • Любовь Кремер | Самая нужная книга для чтения где угодно. 1000 невероятных фактов, которых вы не знали (2016) [FB2]


    • Комментарии (0):

      Информация

      Информация

        Посетители, находящиеся в группе Гости, не могут оставлять комментарии в данной новости.

        ↓ Меню




        ↓ Опрос

        Вы добавили сайт в закладки?
        Да
        Нет


        Top 10 за месяц (Фильмы)