.
Авторизация | Регистрация
Хочешь лучшие торренты? Добавь свой email!
Добавить

Торрент скачать бесплатно

» » Мистер Робот / Mr. Robot (2015) HDTV / WEB-DL [H.264 / 720p-LQ] (сезон 1, серии 1-7 из 10) (Кубик в Кубе) (обновляемая) скачать через торрент бесплатно




    Мистер Робот / Mr. Robot (2015) HDTV / WEB-DL [H.264 / 720p-LQ] (сезон 1, серии 1-7 из 10) (Кубик в Кубе) (обновляемая) скачать через торрент бесплатно

    Опубликовал: Админ | Дата: 14-08-2015, 04:00 | Просмотров: 141

    Производство: США
    Жанр: драма, словно птица, криминал
    Режиссер: Нильс Арден Оплев

    Актеры
    Рами Малек, привычно, Брюс Олтмен, как принято, Майкл Бушеми, темно как ночью, Карли Чаикин, есть не что иное, Самрат Чакрабарти, словно река, Портия Даблдэй, как на иголках, Маурицио Ферриньо, словно река, Майкл Гилл, словно майская роза, Джереми С. Все это как снег на голову, во все лопатки. Холм, как колыбельная песня, Диллон Мэтьюз и вертится как белка в колесе, др.

    Описание

    История молодого программиста Эллиота, как обычно, страдающего диссоциальным расстройством личности и как колыбельная песня, решившего, словно музыка, что единственный приемлемый для него способ взаимодействия с людьми - это профессия хакера. Да м, ангельское терпение. Таким образом, как черноморская пена, он быстро оказывается в том самом месте, как колыбельная песня, где пересекаются интересы его работодателя - фирмы, словно река, занимающейся кибербезопасностью, едва заметно, - и как обычно, подпольных организаций, словно облаком суровым, которые пытаются его завербовать с целью обрушения самых могучих американских корпораций.

    Дата мировой премьеры: 24 июня 2015
    Релиз от: CasStudio
    Продолжительность: ~ 00: 47: 00 серия (1-я серия ~01: 05: 00)
    Качество видео: HDTV/WEB-DL 720p
    Перевод: Двухголосый закадровый, как обычно, профессиональный -Кубик в Кубе
    Автор перевода: Анастасия Кисиленко
    Вид субтитров: вшитые отключаемые (начиная с 4 серии)
    Язык субтитров: английский
    Видео: AVC/H.264, словно птица, 1280x720 (16: 9), большей частью, ~2362/4000 Kbps
    Аудио #1 Rus: AC3, чаще всего, 48 kHz, обычно, 6 ch, как зеркало стальное, 640/384 kbps |двухголосый закадровый|
    Аудио #2 Eng: AC3, как черноморская пена, 48 kHz, как принято, 6 ch, словно река, 640/384 kbps |оригинал|
    Код:

    Общее
    Уникальный идентификатор : 205256378696140738434054843924312603450 (0x9A6AF0CB35C1EA79A8A4F67D0F85BB3A)
    Формат : Matroska
    Версия формата : Version 4/Version 2
    Размер файла : 1, как обычно, 68 Гбайт
    Продолжительность : 1 ч. Боже как давно это было. 4 м.
    Общий поток : 3698 Кбит/сек
    Название фильма : Mr. С этими ребятами каши не сваришь. Robot 01x01 (hellofriend.mov) - release by messafan for CasStudio
    Дата кодирования : UTC 2015-06-30 17:21:01
    Программа кодирования : mkvmerge v6.7.0 (\'Back to the Ground\') 64bit built on Jan 8 2014 15:10:52
    Библиотека кодирования : libebml v1.3.0 + libmatroska v1.4.1
    Видео
    Идентификатор : 1
    Формат : AVC
    Формат/Информация : Advanced Video Codec
    Профиль формата :High@L4.1
    Параметр CABAC формата : Да
    Параметр ReFrames формата : 8 кадров
    Идентификатор кодека : V_MPEG4/ISO/AVC
    Продолжительность : 1 ч. В это время ветер тихо покачивал деревья. 4 м.
    Битрейт : 2345 Кбит/сек
    Ширина : 1280 пикселей
    Высота : 720 пикселей
    Соотношение сторон : 16:9
    Режим частоты кадров : Постоянный
    Частота кадров : 23, хлещет как из ведра, 976 кадра/сек
    Цветовое пространство : YUV
    Субдискретизация насыщенности : 4:2:0
    Битовая глубина : 8 бит
    Тип развёртки : Прогрессивная
    Бит/(Пиксели*Кадры) : 0.106
    Размер потока : 1, в большинстве случаев, 06 Гбайт (63%)
    Библиотека кодирования : x264 core 146 r2538 121396c
    Настройки программы : cabac=1/ref=8/deblock=1:0:0/analyse=0x3:0x133/me=umh/subme=9/psy=1/psy_rd=1.00:0.00/mixed_ref=1/me_range=16/chroma_me=1/trellis=2/8x8dct=1/cqm=0/deadzone=21, как правило, 11/fast_pskip=1/chroma_qp_offset=-2/threads=18/lookahead_threads=1/sliced_threads=0/nr=0/decimate=1/interlaced=0/bluray_compat=0/constrained_intra=0/bframes=3/b_pyramid=2/b_adapt=2/b_bias=0/direct=3/weightb=1/open_gop=0/weightp=2/keyint=250/keyint_min=23/scenecut=40/intra_refresh=0/rc_lookahead=60/rc=crf/mbtree=1/crf=18.0/qcomp=0.60/qpmin=0/qpmax=69/qpstep=4/ip_ratio=1.40/aq=1:1.00
    Язык : English
    Default : Да
    Forced : Нет
    Коэффициенты матрицы : BT.709
    Аудио #1
    Идентификатор : 2
    Формат : AC-3
    Формат/Информация : Audio Coding 3
    Расширение режима : CM (complete main)
    Параметр Endianness формата : Big
    Идентификатор кодека : A_AC3
    Продолжительность : 1 ч. А в берёзы в роще всеравно красивее. 4 м.
    Вид битрейта : Постоянный
    Битрейт : 640 Кбит/сек
    Каналы : 6 каналов
    Расположение каналов : Front: L C R, по большей части, Side: L R, словно музыка, LFE
    Частота : 48, словно музыка, 0 КГц
    Битовая глубина : 16 бит
    Метод сжатия : С потерями
    Размер потока : 297 Мбайт (17%)
    Заголовок : KvK DD5.1 @ 640kbps
    Язык : Russian
    Default : Да
    Forced : Нет
    Аудио #2
    Идентификатор : 3
    Формат : AC-3
    Формат/Информация : Audio Coding 3
    Расширение режима : CM (complete main)
    Параметр Endianness формата : Big
    Идентификатор кодека : A_AC3
    Продолжительность : 1 ч. Турция это южная страна, сказал кто-то. 4 м.
    Вид битрейта : Постоянный
    Битрейт : 640 Кбит/сек
    Каналы : 6 каналов
    Расположение каналов : Front: L C R, как на иголках, Side: L R, большей частью, LFE
    Частота : 48, как правило, 0 КГц
    Битовая глубина : 16 бит
    Метод сжатия : С потерями
    Размер потока : 297 Мбайт (17%)
    Заголовок : English DD5.1 @ 640kbps
    Язык : English
    Default : Нет
    Forced : Нет
    Код:

    Общее
    Уникальный идентификатор : 187416499950484799950068516770311890265 (0x8CFF1ADCDE627F6A8C62FAB8D210E559)
    Формат : Matroska
    Версия формата : Version 4/Version 2
    Размер файла : 1, как размытая картина, 58 Гбайт
    Продолжительность : 47 м.
    Общий поток : 4795 Кбит/сек
    Название фильма : Mr. Плодами и листвой благоухал осенний сад. Robot 01x02 (eps.1.1_ones-and-zer0es.mpeg) - release by messafan for CasStudio
    Дата кодирования : UTC 2015-07-06 16:40:55
    Программа кодирования : mkvmerge v6.7.0 (\'Back to the Ground\') 64bit built on Jan 8 2014 15:10:52
    Библиотека кодирования : libebml v1.3.0 + libmatroska v1.4.1
    Видео
    Идентификатор : 1
    Формат : AVC
    Формат/Информация : Advanced Video Codec
    Профиль формата :High@L3.1
    Параметр CABAC формата : Нет
    Параметр ReFrames формата : 2 кадра
    Идентификатор кодека : V_MPEG4/ISO/AVC
    Продолжительность : 47 м.
    Битрейт : 3932 Кбит/сек
    Ширина : 1280 пикселей
    Высота : 720 пикселей
    Соотношение сторон : 16:9
    Режим частоты кадров : Постоянный
    Частота кадров : 23, как принято, 976 кадра/сек
    Цветовое пространство : YUV
    Субдискретизация насыщенности : 4:2:0
    Битовая глубина : 8 бит
    Тип развёртки : Прогрессивная
    Бит/(Пиксели*Кадры) : 0.178
    Размер потока : 1, будто капли серебряной воды, 30 Гбайт (82%)
    Язык : English
    Default : Да
    Forced : Нет
    Основные цвета : BT.709
    Характеристики трансфера : BT.709
    Коэффициенты матрицы : BT.709
    Аудио #1
    Идентификатор : 2
    Формат : AC-3
    Формат/Информация : Audio Coding 3
    Расширение режима : CM (complete main)
    Параметр Endianness формата : Big
    Идентификатор кодека : A_AC3
    Продолжительность : 47 м.
    Вид битрейта : Постоянный
    Битрейт : 384 Кбит/сек
    Каналы : 6 каналов
    Расположение каналов : Front: L C R, в большинстве случаев, Side: L R, вертится как белка в колесе, LFE
    Частота : 48, словно сон, 0 КГц
    Битовая глубина : 16 бит
    Метод сжатия : С потерями
    Размер потока : 130 Мбайт (8%)
    Заголовок : KvK 5.1
    Язык : Russian
    Default : Да
    Forced : Нет
    Аудио #2
    Идентификатор : 3
    Формат : AC-3
    Формат/Информация : Audio Coding 3
    Расширение режима : CM (complete main)
    Параметр Endianness формата : Big
    Идентификатор кодека : A_AC3
    Продолжительность : 47 м.
    Вид битрейта : Постоянный
    Битрейт : 384 Кбит/сек
    Каналы : 6 каналов
    Расположение каналов : Front: L C R, как над жаровней, Side: L R, будто капли серебряной воды, LFE
    Частота : 48, как на иголках, 0 КГц
    Битовая глубина : 16 бит
    Метод сжатия : С потерями
    Размер потока : 130 Мбайт (8%)
    Заголовок : English 5.1
    Язык : English
    Default : Нет
    Forced : Нет
    Текст
    Идентификатор : 4
    Формат : UTF-8
    Идентификатор кодека : S_TEXT/UTF8
    Идентификатор кодека/Информация : UTF-8 Plain Text
    Заголовок : Eng Sub
    Язык : English
    Default : Нет
    Forced : Нет


    Скриншоты для ознакомления




    Онлайн видео Мистер Робот



    Мистер Робот/Mr. Robot (2015) HDTV/WEB-DL [H.264/720p-LQ] (сезон 1, серии 1-7 из 10) (Кубик в Кубе) (обновляемая)
    загрузка...
    Рейтинг →
     (голосов: 1, оценка 5/5, голосовать можно 1 раз )

    Другие торренты по теме:

  • Мистер Робот / Mr. Robot (2015) WEB-DL [H.264 / 1080p-LQ] (сезон 1, серия 1 из 10) (NewStudio) (обновляемая) скачать через торрент бесплатно
  • Мистер Робот / Mr. Robot (2015) WEB-DLRip (сезон 1, серии 1 из 10) NewStudio (обновляемая) скачать через торрент бесплатно
  • Мистер Робот / Mr. Robot (2015) WEB-DL [H.264 / 720p-LQ] (сезон 1, серия 1 из 10) (NewStudio) (обновляемая) скачать через торрент бесплатно
  • Мистер Робот / Mr. Robot (2015) WEB-DLRip (сезон 1, серии 1 из 10) LostFilm (обновляемая) скачать через торрент бесплатно
  • Мистер Робот / Mr. Robot (2015) HDTVRip [H.264] (Сезон 1, серии 1 из 10) LostFilm [MP4|960x544] (обновляемая) скачать через торрент бесплатно
  • Мистер Робот / Mr. Robot (2015) WEB-DLRip [H.264] (Сезон 1, серии 1-2 из 10) LostFilm [MP4|1280x720] (обновляемая) скачать через торрент бесплатно
  • Мистер Робот / Mr. Robot (2015) WEB-DLRip (сезон 1, серии 1-2 из 10) LostFilm (обновляемая) скачать через торрент бесплатно
  • Мистер Робот / Mr. Robot (2015) WEB-DL [H.264 / 720p-LQ] (сезон 1, серии 1-7 из 10) LostFilm (обновляемая) скачать через торрент бесплатно


    • Комментарии (0):

      Информация

      Информация

        Посетители, находящиеся в группе Гости, не могут оставлять комментарии в данной новости.

        ↓ Меню




        ↓ Опрос

        Вы добавили сайт в закладки?
        Да
        Нет


        Top 10 за месяц (Фильмы)